<?xml version="1.0" standalone="no"?>
<!DOCTYPE svg PUBLIC "-//W3C//DTD SVG 1.1//EN" "http://www.w3.org/Graphics/SVG/1.1/DTD/svg11.dtd" >
<svg xmlns="http://www.w3.org/2000/svg">
<metadata>
Created by FontForge 20120731 at Thu May 11 13:24:05 2017
 By admin
</metadata>
<defs>
<font id="anticon" horiz-adv-x="1024" >
  <font-face 
    font-family="anticon"
    font-weight="500"
    font-stretch="normal"
    units-per-em="1024"
    panose-1="2 0 6 3 0 0 0 0 0 0"
    ascent="896"
    descent="-128"
    x-height="792"
    bbox="-0.142858 -128.087 1024.37 896.923"
    underline-thickness="0"
    underline-position="0"
    unicode-range="U+0078-E951"
  />
<missing-glyph 
 />
    <glyph glyph-name=".notdef" 
 />
    <glyph glyph-name=".notdef" 
 />
    <glyph glyph-name=".null" horiz-adv-x="0" 
 />
    <glyph glyph-name="nonmarkingreturn" horiz-adv-x="341" 
 />
    <glyph glyph-name="x" unicode="x" horiz-adv-x="1001" 
d="M281 543q-27 -1 -53 -1h-83q-18 0 -36.5 -6t-32.5 -18.5t-23 -32t-9 -45.5v-76h912v41q0 16 -0.5 30t-0.5 18q0 13 -5 29t-17 29.5t-31.5 22.5t-49.5 9h-133v-97h-438v97zM955 310v-52q0 -23 0.5 -52t0.5 -58t-10.5 -47.5t-26 -30t-33 -16t-31.5 -4.5q-14 -1 -29.5 -0.5
t-29.5 0.5h-32l-45 128h-439l-44 -128h-29h-34q-20 0 -45 1q-25 0 -41 9.5t-25.5 23t-13.5 29.5t-4 30v167h911zM163 247q-12 0 -21 -8.5t-9 -21.5t9 -21.5t21 -8.5q13 0 22 8.5t9 21.5t-9 21.5t-22 8.5zM316 123q-8 -26 -14 -48q-5 -19 -10.5 -37t-7.5 -25t-3 -15t1 -14.5
t9.5 -10.5t21.5 -4h37h67h81h80h64h36q23 0 34 12t2 38q-5 13 -9.5 30.5t-9.5 34.5q-5 19 -11 39h-368zM336 498v228q0 11 2.5 23t10 21.5t20.5 15.5t34 6h188q31 0 51.5 -14.5t20.5 -52.5v-227h-327z" />
    <glyph glyph-name="stepforward" unicode="&#xe600;" 
d="M327 820l431 -356v300q0 15 10.5 25.5t25.5 10.5v0q15 0 25.5 -10.5t10.5 -25.5v-760q0 -15 -10.5 -25.5t-25.5 -10.5v0q-15 0 -25.5 10.5t-10.5 25.5v301l-431 -357q-21 -18 -46 -7t-25 39v808q0 28 25 39t46 -7z" />
    <glyph glyph-name="stepbackward" unicode="&#xe601;" 
d="M759 820l-431 -356v300q0 15 -10.5 25.5t-25.5 10.5v0q-15 0 -25.5 -10.5t-10.5 -25.5v-760q0 -15 10.5 -25.5t25.5 -10.5v0q15 0 25.5 10.5t10.5 25.5v301l431 -357q21 -18 46 -7t25 39v808q0 28 -25 39t-46 -7z" />
    <glyph glyph-name="forward" unicode="&#xe602;" 
d="M575 790l436 -375q13 -12 13 -30t-13 -29l-436 -378q-18 -17 -40.5 -6.5t-22.5 36.5v377v375q0 26 22.5 36.5t40.5 -6.5zM63 790l436 -375q13 -12 13 -30t-13 -29l-436 -378q-18 -17 -40.5 -6.5t-22.5 36.5v752q0 26 22.5 36.5t40.5 -6.5z" />
    <glyph glyph-name="banckward" unicode="&#xe603;" horiz-adv-x="1025" 
d="M449 790l-436 -376q-13 -11 -13 -29t13 -30l436 -377q18 -17 40.5 -6.5t22.5 36.5v377v375q0 26 -22.5 36.5t-40.5 -6.5zM961 790l-436 -376q-13 -11 -13 -29t13 -30l436 -377q18 -17 40.5 -6.5t22.5 36.5v752q0 26 -22.5 36.5t-40.5 -6.5z" />
    <glyph glyph-name="caretright" unicode="&#xe604;" 
d="M393 820l489 -403q14 -13 14 -32t-14 -32l-489 -405q-21 -18 -46 -7t-25 39v808q0 28 25 39t46 -7z" />
    <glyph glyph-name="caretleft" unicode="&#xe605;" 
d="M631 820l-489 -403q-14 -13 -14 -32t14 -32l489 -405q21 -18 46 -7t25 39v808q0 28 -25 39t-46 -7z" />
    <glyph glyph-name="caretdown" unicode="&#xe606;" 
d="M76 504l403 -489q13 -15 32 -15t32 15l405 489q18 20 7 45t-39 25h-808q-28 0 -39 -25t7 -45z" />
    <glyph glyph-name="caretup" unicode="&#xe607;" 
d="M76 263l405 489q13 14 32 14t32 -14l403 -489q18 -20 7 -45.5t-39 -25.5h-808q-28 0 -39 25.5t7 45.5z" />
    <glyph glyph-name="rightcircle" unicode="&#xe608;" 
d="M512 895q-104 0 -199 -40.5t-163 -109t-109 -163t-41 -199t41 -199t109 -163t163 -109t199 -40.5t199 40.5t163 109t109 163t41 199t-41 199t-109 163t-163 109t-199 40.5zM681 358l-235 -220q-11 -11 -26 -10.5t-25 11.5t-9.5 26t11.5 25l207 194l-207 195
q-11 10 -11.5 25t9.5 26t25 11.5t26 -9.5l235 -221q12 -11 12 -26.5t-12 -26.5z" />
    <glyph glyph-name="leftcircle" unicode="&#xe609;" 
d="M512 895q-104 0 -199 -40.5t-163 -109t-109 -163t-41 -199t41 -199t109 -163t163 -109t199 -40.5t199 40.5t163 109t109 163t41 199t-41 199t-109 163t-163 109t-199 40.5zM629 139q-10 -11 -25 -11.5t-26 9.5l-235 221q-12 11 -12 26.5t11 26.5l236 220q11 11 26 10.5
t25 -11.5t9.5 -26t-11.5 -25l-207 -195l207 -194q11 -10 11.5 -25t-9.5 -26z" />
    <glyph glyph-name="upcircle" unicode="&#xe60a;" 
d="M512 895q-104 0 -199 -40.5t-163 -109t-109 -163t-41 -199t41 -199t109 -163t163 -109t199 -40.5t199 40.5t163 109t109 163t41 199t-41 199t-109 163t-163 109t-199 40.5zM757 278.5q-11 -10.5 -25.5 -10t-24.5 11.5l-195 208l-195 -208q-10 -11 -25 -11.5t-25.5 10
t-11 25t9.5 25.5l221 236q10 11 26 11t26 -11l221 -236q10 -11 9.5 -25.5t-11.5 -25z" />
    <glyph glyph-name="downcircle" unicode="&#xe60b;" 
d="M512 895q-104 0 -199 -40.5t-163 -109t-109 -163t-41 -199t41 -199t109 -163t163 -109t199 -40.5t199 40.5t163 109t109 163t41 199t-41 199t-109 163t-163 109t-199 40.5zM759 430l-221 -236q-10 -11 -26 -11t-26 11l-221 236q-10 11 -9.5 25.5t11 25t25.5 10t25 -11.5
l195 -208l195 208q10 11 24.5 11.5t25.5 -10t11.5 -25t-9.5 -25.5z" />
    <glyph glyph-name="rightcircleo" unicode="&#xe60c;" 
d="M511.5 823q89.5 0 171.5 -34q79 -34 140 -95t94 -139q35 -82 35 -171.5t-35 -171.5q-33 -78 -94 -139t-140 -95q-81 -34 -170.5 -34t-171.5 34q-79 34 -140 95t-94 139q-35 82 -35 171.5t35 171.5q33 78 94 139t140 95q81 34 170.5 34zM512 895q-104 0 -199 -40.5
t-163 -109t-109 -163t-41 -199t41 -199t109 -163t163 -109t199 -40.5t199 40.5t163 109t109 163t41 199t-41 199t-109 163t-163 109t-199 40.5v0zM681 411l-235 220q-11 11 -26 10.5t-25 -11.5t-9.5 -26t11.5 -25l207 -195l-207 -194q-11 -10 -11.5 -25t9.5 -26t25 -11.5
t26 9.5l235 221q12 11 12 26.5t-12 26.5z" />
    <glyph glyph-name="leftcircleo" unicode="&#xe60d;" 
d="M511.5 823q89.5 0 171.5 -34q79 -34 140 -95t94 -139q35 -82 35 -171.5t-35 -171.5q-33 -78 -94 -139t-140 -95q-81 -34 -170.5 -34t-171.5 34q-79 34 -140 95t-94 139q-35 82 -35 171.5t35 171.5q33 78 94 139t140 95q81 34 170.5 34zM512 895q-104 0 -199 -40.5
t-163 -109t-109 -163t-41 -199t41 -199t109 -163t163 -109t199 -40.5t199 40.5t163 109t109 163t41 199t-41 199t-109 163t-163 109t-199 40.5v0zM331 384.5q0 -15.5 12 -26.5l235 -221q11 -10 26 -9.5t25 11.5t9.5 26t-11.5 25l-207 194l207 195q11 10 11.5 25t-9.5 26
t-25 11.5t-26 -10.5l-236 -220q-11 -11 -11 -26.5z" />
    <glyph glyph-name="upcircleo" unicode="&#xe60e;" 
d="M511.5 823q89.5 0 171.5 -34q79 -34 140 -95t94 -139q35 -82 35 -171.5t-35 -171.5q-33 -78 -94 -139t-140 -95q-81 -34 -170.5 -34t-171.5 34q-79 34 -140 95t-94 139q-35 82 -35 171.5t35 171.5q33 78 94 139t140 95q81 34 170.5 34zM512 895q-104 0 -199 -40.5
t-163 -109t-109 -163t-41 -199t41 -199t109 -163t163 -109t199 -40.5t199 40.5t163 109t109 163t41 199t-41 199t-109 163t-163 109t-199 40.5v0zM512 576q-16 0 -26 -11l-221 -236q-10 -11 -9.5 -25.5t11 -25t25.5 -10t25 11.5l195 208l195 -208q10 -11 24.5 -11.5t25.5 10
t11.5 25t-9.5 25.5l-221 236q-10 11 -26 11z" />
    <glyph glyph-name="downcircleo" unicode="&#xe60f;" 
d="M511.5 823q89.5 0 171.5 -34q79 -34 140 -95t94 -139q35 -82 35 -171.5t-35 -171.5q-33 -78 -94 -139t-140 -95q-81 -34 -170.5 -34t-171.5 34q-79 34 -140 95t-94 139q-35 82 -35 171.5t35 171.5q33 78 94 139t140 95q81 34 170.5 34zM512 895q-104 0 -199 -40.5
t-163 -109t-109 -163t-41 -199t41 -199t109 -163t163 -109t199 -40.5t199 40.5t163 109t109 163t41 199t-41 199t-109 163t-163 109t-199 40.5v0zM512 183q-16 0 -26 11l-221 236q-10 11 -9.5 25.5t11 25t25.5 10t25 -11.5l195 -208l195 208q10 11 24.5 11.5t25.5 -10
t11.5 -25t-9.5 -25.5l-221 -236q-10 -11 -26 -11z" />
    <glyph glyph-name="verticleleft" unicode="&#xe610;" 
d="M273 78l382 307l-380 305q-14 11 -16 29t9.5 32t29.5 16t32 -9l358 -288v262q0 15 10.5 25.5t25.5 10.5h8q15 0 25.5 -10.5t10.5 -25.5v-696q0 -15 -10.5 -25.5t-25.5 -10.5h-8q-15 0 -25.5 10.5t-10.5 25.5v264l-360 -290q-12 -10 -27 -10q-21 0 -35 17q-11 14 -9 32
t16 29z" />
    <glyph glyph-name="verticleright" unicode="&#xe611;" 
d="M752 78l-382 307l380 305q14 11 16 29t-9.5 32t-29.5 16t-32 -9l-358 -288v262q0 15 -10.5 25.5t-25.5 10.5h-8q-15 0 -25.5 -10.5t-10.5 -25.5v-696q0 -15 10.5 -25.5t25.5 -10.5h8q15 0 25.5 10.5t10.5 25.5v264l360 -290q12 -10 27 -10q21 0 34 17q12 14 10 32t-16 29
z" />
    <glyph glyph-name="rollback" unicode="&#xe612;" 
d="M811.5 471.5q-88.5 88.5 -213.5 88.5h-336l114 114q12 12 12 28.5t-12 28t-28.5 11.5t-28.5 -12l-183 -183q-12 -12 -12 -28.5t12 -28.5l178 -178q12 -12 28.5 -12t28 11.5t11.5 28t-11 28.5l-113 112h340q92 0 157 -65t65 -157v-192q0 -17 12 -28.5t28.5 -11.5t28 11.5
t11.5 28.5v192q0 125 -88.5 213.5z" />
    <glyph glyph-name="retweet" unicode="&#xe613;" 
d="M366 579h349l-119 -119q-11 -11 -11 -26t10.5 -25.5t25.5 -10.5t25 11l179 178q11 11 11 25.5t-11 25.5l-184 184q-10 10 -25 10t-25.5 -10.5t-10.5 -25.5t10 -25l120 -120h-344q-124 0 -211.5 -87.5t-87.5 -211.5q0 -15 10.5 -25.5t25.5 -10.5t25.5 10.5t10.5 25.5
q0 94 66.5 160.5t160.5 66.5zM923 455q-15 0 -25.5 -10.5t-10.5 -25.5q0 -94 -66.5 -160.5t-160.5 -66.5h-349l120 120q10 10 10 25t-10.5 25.5t-25.5 10.5t-25 -11l-179 -178q-10 -11 -10 -25.5t10 -25.5l184 -184q10 -10 25 -10t25.5 10.5t10.5 25.5t-10 25l-120 120h344
q124 0 211.5 87.5t87.5 211.5q0 15 -10.5 25.5t-25.5 10.5z" />
    <glyph glyph-name="shrink" unicode="&#xe614;" 
d="M109 247h211l-232 -232q-13 -13 -13 -31t13 -31t31 -13t31 13l236 236v-210q0 -18 13 -31t31 -13t31 13t13 31v312q0 19 -13 31.5t-31 12.5h-321q-18 0 -31 -12.5t-13 -31t13 -31.5t31 -13zM595 431h321q18 0 31 13t13 31t-13 31t-31 13h-211l232 232q13 13 13 31.5
t-13 31t-31 12.5t-31 -12l-236 -236v209q0 18 -13 31t-31 13t-31 -13t-13 -31v-312q0 -18 13 -31t31 -13z" />
    <glyph glyph-name="arrowsalt" unicode="&#xe615;" 
d="M430 23h-211l232 232q13 13 13 31.5t-13 31t-31 12.5t-31 -12l-236 -236v209q0 18 -13 31t-31 13t-31 -13t-13 -31v-312q0 -18 13 -31t31 -13h321q18 0 31 13t13 31t-13 31t-31 13zM916 831h-321q-18 0 -31 -13t-13 -31t13 -31t31 -13h211l-232 -232q-13 -13 -13 -31
t13 -31t31 -13t31 13l236 236v-210q0 -18 13 -31t31 -13t31 13t13 31v312q0 18 -13 31t-31 13z" />
    <glyph glyph-name="doubleright" unicode="&#xe617;" 
d="M431 17q-11 14 -9 32t16 29l381 307l-379 305q-14 11 -16 29t9 32t29 16t32 -9l422 -339q17 -13 17 -34t-17 -34l-424 -341q-12 -10 -27 -10q-21 0 -34 17zM101 17q-11 14 -9 32t16 29l381 307l-379 305q-14 11 -16 29t9 32t29 16t32 -9l422 -339q17 -13 17 -34t-17 -34
l-424 -341q-12 -10 -27 -10q-21 0 -34 17z" />
    <glyph glyph-name="doubleleft" unicode="&#xe618;" 
d="M559 0q-15 0 -27 10l-424 341q-17 13 -17 34t17 34l422 339q14 11 32 9t29 -16t9 -32t-16 -29l-379 -305l381 -307q14 -11 16 -29t-9 -32q-13 -17 -34 -17zM889 0q-15 0 -27 10l-424 341q-17 13 -17 34t17 34l422 339q14 11 32 9t29 -16t9 -32t-16 -29l-379 -305
l381 -307q14 -11 16 -29t-9 -32q-13 -17 -34 -17z" />
    <glyph glyph-name="arrowdown" unicode="&#xe619;" 
d="M558 725v-574v0l208 216q13 14 31 14t31.5 -12.5t13.5 -30.5t-12 -32l-284 -294q-13 -14 -31.5 -14t-31.5 14l-285 296q-12 13 -12 30q0 19 14 32q13 13 31 12.5t31 -13.5l208 -216v0v573q0 17 12 30t29 14q19 1 33 -12.5t14 -32.5z" />
    <glyph glyph-name="arrowup" unicode="&#xe61a;" 
d="M470 43v574v0l-208 -216q-13 -14 -31 -14t-31.5 12.5t-13.5 30.5t12 32l284 294q13 14 31.5 14t31.5 -14l285 -296q12 -13 12 -30q0 -19 -14 -32q-13 -13 -31 -12.5t-31 13.5l-208 216v0v-573q0 -17 -12 -30t-29 -14q-19 -1 -33 12.5t-14 32.5z" />
    <glyph glyph-name="arrowright" unicode="&#xe61b;" 
d="M173 428h574v0l-216 208q-14 13 -14 31t12.5 31.5t30.5 13.5t32 -12l294 -284q14 -13 14 -31.5t-14 -31.5l-296 -285q-13 -12 -30 -12q-19 0 -32 14q-13 13 -12.5 31t13.5 31l216 208v0h-573q-17 0 -30 12t-14 29q-1 19 12.5 33t32.5 14z" />
    <glyph glyph-name="arrowleft" unicode="&#xe61c;" 
d="M855 428h-574v0l216 208q14 13 14 31t-12.5 31.5t-30.5 13.5t-32 -12l-294 -284q-14 -13 -14 -31.5t14 -31.5l296 -285q13 -12 30 -12q19 0 32 14q13 13 12.5 31t-13.5 31l-216 208v0h573q17 0 30 12t14 29q1 19 -12.5 33t-32.5 14z" />
    <glyph glyph-name="down" unicode="&#xe61d;" 
d="M896 596q0 -15 -10 -28l-341 -423q-13 -17 -34 -17t-34 17l-339 422q-11 14 -9 32t16 29t32 9t29 -16l305 -379l307 381q11 14 29 16t32 -9q17 -13 17 -34z" />
    <glyph glyph-name="up" unicode="&#xe61e;" 
d="M896 236q0 15 -10 28l-341 423q-13 17 -34 17t-34 -17l-339 -422q-11 -14 -9 -32t16 -29t32 -9t29 16l305 379l307 -381q11 -14 29 -16t32 9q17 13 17 34z" />
    <glyph glyph-name="right" unicode="&#xe61f;" 
d="M301 0q15 0 27 10l424 341q16 13 16 34t-16 34l-422 339q-14 11 -32 9t-29.5 -16t-9.5 -32t16 -29l380 -305l-382 -307q-14 -11 -16 -29t9 -32q14 -17 35 -17z" />
    <glyph glyph-name="left" unicode="&#xe620;" 
d="M724 0q-15 0 -27 10l-424 341q-16 13 -16 34t16 34l422 339q14 11 32 9t29.5 -16t9.5 -32t-16 -29l-380 -305l382 -307q14 -11 16 -29t-10 -32q-13 -17 -34 -17z" />
    <glyph glyph-name="minussquareo" unicode="&#xe621;" 
d="M888 760v0v0v-753v0h-752v0v753v0h752zM888 832h-752q-30 0 -51 -21t-21 -51v-753q0 -29 21 -50.5t51 -21.5h753q29 0 50.5 21.5t21.5 50.5v753q0 30 -21.5 51t-51.5 21v0zM732 347h-442q-14 0 -25 10.5t-11 25.5v0q0 15 11 25.5t25 10.5h442q14 0 25 -10.5t11 -25.5v0
q0 -15 -11 -25.5t-25 -10.5z" />
    <glyph glyph-name="minuscircle" unicode="&#xe622;" 
d="M512 896q-139 0 -257 -68.5t-186.5 -186.5t-68.5 -257t68.5 -257t186.5 -186.5t257 -68.5t257 68.5t186.5 186.5t68.5 257t-68.5 257t-186.5 186.5t-257 68.5zM832 384q0 -15 -10.5 -25.5t-25.5 -10.5h-568q-15 0 -25.5 10.5t-10.5 25.5v0q0 15 10.5 25.5t25.5 10.5h568
q15 0 25.5 -10.5t10.5 -25.5v0z" />
    <glyph glyph-name="minuscircleo" unicode="&#xe623;" 
d="M512 896q-139 0 -257 -68.5t-186.5 -186.5t-68.5 -257t68.5 -257t186.5 -186.5t257 -68.5t257 68.5t186.5 186.5t68.5 257t-68.5 257t-186.5 186.5t-257 68.5zM823 73q-61 -61 -140 -94q-81 -35 -171 -35t-171 34q-79 34 -140 95t-94 140q-35 81 -35 171t34 171
q34 79 95 140t140 94q81 35 171 35t171 -34q79 -34 140 -95t94 -140q35 -81 35 -171t-34 -171q-34 -79 -95 -140zM796 348h-568q-15 0 -25.5 10.5t-10.5 25.5v0q0 15 10.5 25.5t25.5 10.5h568q15 0 25.5 -10.5t10.5 -25.5v0q0 -15 -10.5 -25.5t-25.5 -10.5z" />
    <glyph glyph-name="minus" unicode="&#xe624;" 
d="M796 348h-568q-15 0 -25.5 10.5t-10.5 25.5v0q0 15 10.5 25.5t25.5 10.5h568q15 0 25.5 -10.5t10.5 -25.5v0q0 -15 -10.5 -25.5t-25.5 -10.5z" />
    <glyph glyph-name="pluscircleo" unicode="&#xe625;" 
d="M512 896q-139 0 -257 -68.5t-186.5 -186.5t-68.5 -257t68.5 -257t186.5 -186.5t257 -68.5t257 68.5t186.5 186.5t68.5 257t-68.5 257t-186.5 186.5t-257 68.5zM823 73q-61 -61 -140 -94q-81 -35 -171 -35t-171 34q-79 34 -140 95t-94 140q-35 81 -35 171t34 171
q34 79 95 140t140 94q81 35 171 35t171 -34q79 -34 140 -95t94 -140q35 -81 35 -171t-34 -171q-34 -79 -95 -140zM732 420h-184v183q0 15 -10.5 25.5t-25.5 10.5v0q-14 0 -25 -10.5t-11 -25.5v-183h-184q-15 0 -25.5 -11t-10.5 -25v0q0 -15 10.5 -25.5t25.5 -10.5h184v-183
q0 -15 11 -25.5t25 -10.5v0q15 0 25.5 10.5t10.5 25.5v183h184q15 0 25.5 10.5t10.5 25.5v0q0 14 -10.5 25t-25.5 11z" />
    <glyph glyph-name="pluscircle" unicode="&#xe626;" 
d="M512 896q-139 0 -257 -68.5t-186.5 -186.5t-68.5 -257t68.5 -257t186.5 -186.5t257 -68.5t257 68.5t186.5 186.5t68.5 257t-68.5 257t-186.5 186.5t-257 68.5zM768 384q0 -15 -10.5 -25.5t-25.5 -10.5h-184v-183q0 -15 -10.5 -25.5t-25.5 -10.5v0q-14 0 -25 10.5
t-11 25.5v183h-184q-15 0 -25.5 10.5t-10.5 25.5v0q0 14 10.5 25t25.5 11h184v183q0 15 11 25.5t25 10.5v0q15 0 25.5 -10.5t10.5 -25.5v-183h184q15 0 25.5 -11t10.5 -25v0z" />
    <glyph glyph-name="plus" unicode="&#xe627;" 
d="M866 420h-318v310q0 15 -10.5 25.5t-25.5 10.5v0q-15 0 -25.5 -10.5t-10.5 -25.5v-310h-312q-14 0 -25 -10.5t-11 -25.5v0q0 -15 11 -25.5t25 -10.5h312v-312q0 -14 10.5 -25t25.5 -11v0q15 0 25.5 11t10.5 25v312h318q15 0 25.5 10.5t10.5 25.5v0q0 15 -10.5 25.5
t-25.5 10.5z" />
    <glyph glyph-name="infocirlce" unicode="&#xe628;" 
d="M512 896q-139 0 -257 -68.5t-186.5 -186.5t-68.5 -257t68.5 -257t186.5 -186.5t257 -68.5t257 68.5t186.5 186.5t68.5 257t-68.5 257t-186.5 186.5t-257 68.5zM509 712q15 0 25.5 -11t10.5 -25.5t-10.5 -25t-25.5 -10.5t-25.5 10.5t-10.5 25t10.5 25.5t25.5 11zM666 154
q0 -15 -10.5 -25.5t-25.5 -10.5h-85h-72h-85q-15 0 -25.5 10.5t-10.5 25.5v0q0 15 10.5 25.5t25.5 10.5h85v314h-60q-15 0 -25.5 11t-10.5 25v0q0 15 10.5 25.5t25.5 10.5h60h36v0q15 0 25.5 -10.5t10.5 -25.5v-350h85q15 0 25.5 -10.5t10.5 -25.5v0z" />
    <glyph glyph-name="infocirlceo" unicode="&#xe629;" 
d="M512 896q-139 0 -257 -68.5t-186.5 -186.5t-68.5 -257t68.5 -257t186.5 -186.5t257 -68.5t257 68.5t186.5 186.5t68.5 257t-68.5 257t-186.5 186.5t-257 68.5zM823 73q-61 -61 -140 -94q-81 -35 -171 -35t-171 34q-79 34 -140 95t-94 140q-35 81 -35 171t34 171
q34 79 95 140t140 94q81 35 171 35t171 -34q79 -34 140 -95t94 -140q35 -81 35 -171t-34 -171q-34 -79 -95 -140zM630 190h-85v350q0 15 -10.5 25.5t-25.5 10.5v0h-36h-60q-15 0 -25.5 -10.5t-10.5 -25.5v0q0 -14 10.5 -25t25.5 -11h60v-314h-85q-15 0 -25.5 -10.5
t-10.5 -25.5v0q0 -15 10.5 -25.5t25.5 -10.5h85h72h85q15 0 25.5 10.5t10.5 25.5v0q0 15 -10.5 25.5t-25.5 10.5zM509 676zM473 675.5q0 14.5 10.5 25.5t25.5 11t25.5 -11t10.5 -25.5t-10.5 -25t-25.5 -10.5t-25.5 10.5t-10.5 25z" />
    <glyph glyph-name="info" unicode="&#xe62a;" 
d="M660 136h-85v404q0 15 -10.5 25.5t-25.5 10.5v0h-36h-60q-15 0 -25.5 -10.5t-10.5 -25.5v0q0 -14 10.5 -25t25.5 -11h60v-368h-85q-15 0 -25.5 -10.5t-10.5 -25.5v0q0 -15 10.5 -25.5t25.5 -10.5h85h72h85q15 0 25.5 10.5t10.5 25.5v0q0 15 -10.5 25.5t-25.5 10.5z
M539 676zM503 675.5q0 14.5 10.5 25.5t25.5 11t25.5 -11t10.5 -25.5t-10.5 -25t-25.5 -10.5t-25.5 10.5t-10.5 25z" />
    <glyph glyph-name="exclamation" unicode="&#xe62b;" 
d="M512 193q-17 0 -28.5 11.5t-11.5 28.5v495q0 17 11.5 28.5t28.5 11.5t28.5 -11.5t11.5 -28.5v-495q0 -17 -11.5 -28.5t-28.5 -11.5zM512 83zM467 83q0 19 13 32t32 13t32 -13t13 -32t-13 -32t-32 -13t-32 13t-13 32z" />
    <glyph glyph-name="exclamationcircle" unicode="&#xe62c;" 
d="M512 896q-139 0 -257 -68.5t-186.5 -186.5t-68.5 -257t68.5 -257t186.5 -186.5t257 -68.5t257 68.5t186.5 186.5t68.5 257t-68.5 257t-186.5 186.5t-257 68.5zM472 665q0 17 11.5 28.5t28.5 11.5t28.5 -11.5t11.5 -28.5v-369q0 -17 -11.5 -28.5t-28.5 -11.5t-28.5 11.5
t-11.5 28.5v369zM512 102q-19 0 -32 13t-13 32t13 32t32 13t32 -13t13 -32t-13 -32t-32 -13z" />
    <glyph glyph-name="exclamationcircleo" unicode="&#xe62d;" 
d="M512 824q90 0 171 -34q79 -34 140 -95t94 -140q35 -81 35 -171t-34 -171q-34 -79 -95 -140t-140 -94q-81 -35 -171 -35t-171 34q-79 34 -140 95t-94 140q-35 81 -35 171t34 171q34 79 95 140t140 94q81 35 171 35zM512 896q-139 0 -257 -68.5t-186.5 -186.5t-68.5 -257
t68.5 -257t186.5 -186.5t257 -68.5t257 68.5t186.5 186.5t68.5 257t-68.5 257t-186.5 186.5t-257 68.5v0zM512 256q-17 0 -28.5 11.5t-11.5 28.5v369q0 17 11.5 28.5t28.5 11.5t28.5 -11.5t11.5 -28.5v-369q0 -17 -11.5 -28.5t-28.5 -11.5zM512 147zM467 147q0 19 13 32
t32 13t32 -13t13 -32t-13 -32t-32 -13t-32 13t-13 32z" />
    <glyph glyph-name="closecircle" unicode="&#xe62e;" 
d="M512 896q-139 0 -257 -68.5t-186.5 -186.5t-68.5 -257t68.5 -257t186.5 -186.5t257 -68.5t257 68.5t186.5 186.5t68.5 257t-68.5 257t-186.5 186.5t-257 68.5zM717 229q11 -10 11 -25t-10.5 -25.5t-25.5 -10.5t-26 10l-154 155l-154 -155q-11 -10 -26 -10t-25.5 10.5
t-10.5 25.5t11 25l154 155l-154 155q-11 10 -11 25t10.5 25.5t25.5 10.5t26 -10l154 -155l154 155q11 10 26 10t25.5 -10.5t10.5 -25t-11 -25.5l-154 -155z" />
    <glyph glyph-name="closecircleo" unicode="&#xe62f;" 
d="M717.5 589.5q-10.5 10.5 -25.5 10.5t-26 -10l-154 -155l-154 155q-11 10 -26 10t-25.5 -10.5t-10.5 -25.5t11 -25l154 -155l-154 -155q-11 -10 -11 -25t10.5 -25.5t25.5 -10.5t26 10l154 155l154 -155q11 -10 26 -10t25.5 10.5t10.5 25t-11 25.5l-154 155l154 155
q11 10 11 25t-10.5 25.5zM512 896q-139 0 -257 -68.5t-186.5 -186.5t-68.5 -257t68.5 -257t186.5 -186.5t257 -68.5t257 68.5t186.5 186.5t68.5 257t-68.5 257t-186.5 186.5t-257 68.5zM823 73q-61 -61 -140 -94q-81 -35 -171 -35t-171 34q-79 34 -140 95t-94 140
q-35 81 -35 171t34 171q34 79 95 140t140 94q81 35 171 35t171 -34q79 -34 140 -95t94 -140q35 -81 35 -171t-34 -171q-34 -79 -95 -140z" />
    <glyph glyph-name="checkcircle" unicode="&#xe630;" 
d="M512 896q-139 0 -257 -68.5t-186.5 -186.5t-68.5 -257t68.5 -257t186.5 -186.5t257 -68.5t257 68.5t186.5 186.5t68.5 257t-68.5 257t-186.5 186.5t-257 68.5zM772 540l-359 -361v0l-1 -1q-3 -3 -8 -6q-8 -5 -18 -5q-21 0 -31 18l-109 191q-8 13 -4 27t17 21.5t27.5 3.5
t21.5 -17l86 -149l327 328q11 11 26 11t25.5 -10.5t10.5 -25.5t-11 -25z" />
    <glyph glyph-name="checkcircleo" unicode="&#xe631;" 
d="M721 590l-327 -328l-86 149q-7 13 -21.5 17t-27.5 -3.5t-17 -21.5t4 -27l109 -191q10 -18 31 -18q10 0 18 5q5 3 8 6l1 1l359 360q11 11 11 26t-10.5 25.5t-25.5 10.5t-26 -11zM512 896q-139 0 -257 -68.5t-186.5 -186.5t-68.5 -257t68.5 -257t186.5 -186.5t257 -68.5
t257 68.5t186.5 186.5t68.5 257t-68.5 257t-186.5 186.5t-257 68.5zM823 73q-61 -61 -140 -94q-81 -35 -171 -35t-171 34q-79 34 -140 95t-94 140q-35 81 -35 171t34 171q34 79 95 140t140 94q81 35 171 35t171 -34q79 -34 140 -95t94 -140q35 -81 35 -171t-34 -171
q-34 -79 -95 -140z" />
    <glyph glyph-name="check" unicode="&#xe632;" 
d="M328 96q-3 0 -5 1q-20 2 -30 20l-159 278q-8 15 -4 31t18.5 24t30.5 3.5t25 -18.5l133 -233l491 492q11 12 28 12t28.5 -11.5t11.5 -28.5t-12 -28l-526 -528l-2 -2q-11 -12 -28 -12z" />
    <glyph glyph-name="close" unicode="&#xe633;" 
d="M568 381l254 255q12 11 12 27.5t-11.5 28t-28 11.5t-27.5 -12l-255 -254l-255 254q-11 12 -27.5 12t-28 -11.5t-11.5 -28t12 -27.5l254 -255l-254 -255q-12 -11 -12 -27.5t11.5 -28t28 -11.5t27.5 12l255 255l255 -255q11 -12 27.5 -12t28 11.5t11.5 28t-12 27.5z" />
    <glyph glyph-name="customerservice" unicode="&#xe634;" 
d="M838 579q-6 26 -18 52q-25 59 -72 105q-46 45 -107 70q-63 26 -131 26t-131 -26q-60 -25 -107 -70.5t-72 -104.5q-11 -25 -18 -53q-24 -8 -45 -23q-22 -16 -38 -38q-35 -47 -35 -106q0 -72 51 -123q37 -37 87 -48q4 -1 8 -1q15 0 25 11q10 10 10 25l-1 227q0 107 77 183
q78 76 188.5 76t188.5 -76t78 -183v-236q0 -107 -78 -183q-31 -31 -71 -50q1 11 1 22q-1 46 -34 79t-79 35h-3q-48 0 -82 -34.5t-34 -82.5q0 -47 33.5 -81t80.5 -35v0h2v0h2h1v0v0q66 1 126 26t107 70.5t73 104.5q22 53 26 111q35 13 62 40q51 51 51 123q0 58 -34 104.5
t-88 63.5zM82 355q1 -3 3 -7q-2 5 -3 7zM92 333q2 -4 5 -9q-4 6 -5 9zM160 332l-3 3l3 -3l2 -2zM173 332q-4 3 -7 6q-31 31 -31 73q0 29 14 53q9 17 24 29v-161zM181 316q-1 0 -2 0.5t-1 1.5q1 -1 3 -2v0zM188 571v0q1 5 4 13q-2 -7 -4 -13zM204 248l-10 2q9 -2 10 -2h2h-2z
M210 248h-1h1v0zM237 274v1l-1 227l1 -227v-1zM307 756q7 5 10 7q-6 -4 -10 -7zM382 799q-30 -13 -58 -31q28 18 58 31q1 0 2.5 0.5t2.5 0.5q-3 0 -5 -1zM442 761l2 0.5t3 0.5h2zM742 730q-45 44 -104 69q-1 0 -2.5 0.5t-2.5 0.5q1 0 2.5 -0.5t2.5 -0.5q59 -25 104 -69l6 -6
zM754 718q4 -4 9 -10q-5 6 -9 10zM765 706q2 -3 8 -10q-4 4 -8 10zM404 52v0v3v-3zM512 161h3h-3v0zM544.5 21q-12.5 -13 -30.5 -14h-2q-19 0 -32 13.5t-13 31.5q0 19 13 32.5t32 13.5t32 -13.5t13 -32t-12.5 -31.5zM565 44v8v3v-1v-2v-8zM615 19l1 3l-1 -3q1 1 2.5 1.5
t2.5 0.5q-2 -1 -5 -2zM742 38l-6 -6q1 1 3.5 3t2.5 3l6 6q-3 -4 -6 -6zM784 266v-14v14v236v6v-3v-3v-236zM813 140q-3 -7 -7 -14q4 7 7 14q0 1 1 2.5t1 2.5q-1 -3 -2 -5zM813 628q-3 7 -7 14q4 -7 7 -14q1 -2 3 -7q-1 3 -3 7zM831 572q0 3 -1 7q0 -1 0.5 -3t0.5 -4v0z
M839 510q7 -3 12 -7q-5 4 -12 7v0zM864 332q-11 -11 -25 -18v0q14 7 25 18q0 1 1 1q0 1 1 1q-1 0 -1 -1q-1 0 -1 -1zM858 338q-5 -5 -11 -10v168q17 -13 27 -30q15 -25 15 -55q0 -42 -31 -73zM945 460l-2 6q1 -2 2 -6zM935 485q1 -1 3 -6q-1 1 -1.5 3.5t-1.5 2.5zM943 356
q0 2 2 7q-1 -2 -2 -7z" />
    <glyph glyph-name="creditcard" unicode="&#xe635;" 
d="M952 766h-880q-30 0 -51 -21t-21 -51v-120v-96v-405q0 -29 21 -50.5t51 -21.5h880q30 0 51 21.5t21 50.5v405v96v120q0 30 -21 51t-51 21zM952 73h-880v405h880v-405zM72 574v120h880v-120h-880zM237 192v0q18 0 31 13t13 31v0q0 18 -13 31t-31 13v0q-18 0 -31 -13
t-13 -31v0q0 -18 13 -31t31 -13zM404 192v0q18 0 31 13t13 31v0q0 18 -13 31t-31 13v0q-19 0 -31.5 -13t-12.5 -31v0q0 -18 12.5 -31t31.5 -13z" />
    <glyph glyph-name="codesquareo" unicode="&#xe636;" 
d="M888 832h-752q-30 0 -51 -21t-21 -51v-753q0 -29 21 -50.5t51 -21.5h753q29 0 50.5 21.5t21.5 50.5v753q0 30 -21.5 51t-51.5 21zM888 7h-752v753h752v-753zM203.5 357.5q10.5 -10.5 25.5 -10.5t25 11l140 141q11 10 11 25t-10 26l-141 142q-10 10 -25 10t-25.5 -10.5
t-10.5 -25t10 -25.5l115 -117l-115 -115q-10 -11 -10 -26t10.5 -25.5zM383 384q0 -15 10.5 -25.5t24.5 -10.5l199 -1h1q14 0 25 10.5t11 25.5t-11 25.5t-25 10.5l-199 1v0q-15 0 -25.5 -10.5t-10.5 -25.5z" />
    <glyph glyph-name="book" unicode="&#xe637;" 
d="M822 832h-259h-72h-121h-72h-94q-29 0 -50.5 -21t-21.5 -51v-753q0 -29 21.5 -50.5t50.5 -21.5h619q29 0 50.5 21.5t21.5 50.5v753q0 30 -21.5 51t-51.5 21zM491 760v-209l-9 8l-33 34q-8 7 -18 7t-17 -7l-44 -44v211h121zM298 760v-277q0 -15 10 -25t25 -10v0
q37 0 63 25l35 35l35 -34q25 -25 60 -26h1q15 0 25.5 10t10.5 25v277h260v-624h-618v624h93zM204 7v57h618v-57h-618z" />
    <glyph glyph-name="barschart" unicode="&#xe638;" 
d="M203 730v-696q0 -15 -10.5 -25.5t-25.5 -10.5v0q-15 0 -25.5 10.5t-10.5 25.5v696q0 15 10.5 25.5t25.5 10.5v0q15 0 25.5 -10.5t10.5 -25.5zM167 70h694q15 0 25.5 -10.5t10.5 -25.5v0q0 -15 -10.5 -25.5t-25.5 -10.5h-694q-15 0 -25.5 10.5t-10.5 25.5v0
q0 15 10.5 25.5t25.5 10.5zM394 537v-371q0 -15 -10.5 -25.5t-25.5 -10.5v0q-15 0 -25.5 10.5t-10.5 25.5v371q0 15 10.5 25.5t25.5 10.5v0q15 0 25.5 -10.5t10.5 -25.5zM777 667v-501q0 -15 -10.5 -25.5t-25.5 -10.5v0q-15 0 -25.5 10.5t-10.5 25.5v501q0 15 10.5 25.5
t25.5 10.5v0q15 0 25.5 -10.5t10.5 -25.5zM585 411v-245q0 -15 -10.5 -25.5t-25.5 -10.5v0q-15 0 -25.5 10.5t-10.5 25.5v245q0 15 10.5 25.5t25.5 10.5v0q14 0 25 -10.5t11 -25.5z" />
    <glyph glyph-name="bars" unicode="&#xe639;" 
d="M187 639zM124 639q0 26 18.5 44.5t44.5 18.5t44.5 -18.5t18.5 -44.5t-18.5 -44.5t-44.5 -18.5t-44.5 18.5t-18.5 44.5zM856 610h-498q-15 0 -25.5 10.5t-10.5 25.5v0q0 15 10.5 25.5t25.5 10.5h498q15 0 25.5 -10.5t10.5 -25.5v0q0 -15 -10.5 -25.5t-25.5 -10.5zM187 384
zM124 384q0 26 18.5 44.5t44.5 18.5t44.5 -18.5t18.5 -44.5t-18.5 -44.5t-44.5 -18.5t-44.5 18.5t-18.5 44.5zM856 355h-498q-15 0 -25.5 10.5t-10.5 25.5v0q0 15 10.5 25.5t25.5 10.5h498q15 0 25.5 -10.5t10.5 -25.5v0q0 -15 -10.5 -25.5t-25.5 -10.5zM187 129zM124 129
q0 26 18.5 44.5t44.5 18.5t44.5 -18.5t18.5 -44.5t-18.5 -44.5t-44.5 -18.5t-44.5 18.5t-18.5 44.5zM856 100h-498q-15 0 -25.5 10.5t-10.5 25.5v0q0 15 10.5 25.5t25.5 10.5h498q15 0 25.5 -10.5t10.5 -25.5v0q0 -15 -10.5 -25.5t-25.5 -10.5z" />
    <glyph glyph-name="question" unicode="&#xe63a;" 
d="M644 633q-61 64 -152 64q-84 0 -143.5 -59.5t-59.5 -143.5q0 -15 10.5 -25.5t25.5 -10.5t25.5 10.5t10.5 25.5q0 54 38.5 92.5t92.5 38.5h1q59 0 99 -42q35 -37 32 -85q-1 -18 -4 -29t-21 -37.5t-54 -62.5q-43 -43 -66.5 -77t-27.5 -72q-2 -15 7.5 -26.5t24.5 -12.5h4
q14 0 24 9t12 23q3 35 73 105q61 61 79.5 98t20.5 78q5 79 -52 139zM486 80zM443 80q0 18 12.5 30.5t30.5 12.5t30.5 -12.5t12.5 -30.5t-12.5 -30.5t-30.5 -12.5t-30.5 12.5t-12.5 30.5z" />
    <glyph glyph-name="questioncircle" unicode="&#xe63b;" 
d="M512 896q-139 0 -257 -68.5t-186.5 -186.5t-68.5 -257t68.5 -257t186.5 -186.5t257 -68.5t257 68.5t186.5 186.5t68.5 257t-68.5 257t-186.5 186.5t-257 68.5zM505.5 83q-17.5 0 -30.5 13t-13 31t13 30.5t30.5 12.5t30.5 -12.5t13 -30.5t-13 -31t-30.5 -13zM691 505
q-2 -38 -19.5 -70.5t-67.5 -83.5q-59 -58 -61 -87q-2 -13 -12 -22.5t-24 -9.5h-4q-15 2 -24.5 13.5t-7.5 26.5q3 33 23.5 63t58.5 67q30 30 45.5 52t18 31t2.5 24q2 39 -26 69q-33 34 -81 34v0q-45 0 -76.5 -31.5t-31.5 -75.5q0 -15 -10.5 -25.5t-25.5 -10.5t-25.5 10.5
t-10.5 25.5q0 74 52.5 126.5t126.5 52.5q80 1 134 -56q50 -53 46 -123z" />
    <glyph glyph-name="questioncircleo" unicode="&#xe63c;" 
d="M512 896q-139 0 -257 -68.5t-186.5 -186.5t-68.5 -257t68.5 -257t186.5 -186.5t257 -68.5t257 68.5t186.5 186.5t68.5 257t-68.5 257t-186.5 186.5t-257 68.5zM823 73q-61 -61 -140 -94q-81 -35 -171 -35t-171 34q-79 34 -140 95t-94 140q-35 81 -35 171t34 171
q34 79 95 140t140 94q81 35 171 35t171 -34q79 -34 140 -95t94 -140q35 -81 35 -171t-34 -171q-34 -79 -95 -140zM546 372zM507 232h-4q-15 2 -24.5 13.5t-7.5 26.5q3 33 23.5 63t58.5 67q30 30 45.5 52t18 31.5t2.5 23.5q2 39 -26 69q-33 35 -81 35v0q-45 0 -76.5 -32
t-31.5 -76q0 -15 -10.5 -25.5t-25.5 -10.5t-25.5 10.5t-10.5 25.5q0 74 52.5 126.5t126.5 53.5q80 0 134 -57q50 -53 46 -123q-2 -37 -19.5 -70t-67.5 -84q-59 -58 -61 -86q-2 -14 -12 -23.5t-24 -9.5zM506 127zM462 127q0 18 13 30.5t30.5 12.5t30.5 -12.5t13 -30.5
t-13 -30.5t-30.5 -12.5t-30.5 12.5t-13 30.5z" />
    <glyph glyph-name="pause" unicode="&#xe63d;" 
d="M326 704v0q-15 0 -25.5 -11t-10.5 -25v-568q0 -14 10.5 -25t25.5 -11v0q15 0 25 11t9 25v568q1 14 -9 25t-25 11zM698 704v0q-14 0 -25 -11t-11 -25v-568q0 -14 11 -25t25 -11v0q15 0 25.5 11t10.5 25v568q0 14 -10.5 25t-25.5 11z" />
    <glyph glyph-name="pausecircle" unicode="&#xe63e;" 
d="M512 896q-139 0 -257 -68.5t-186.5 -186.5t-68.5 -257t68.5 -257t186.5 -186.5t257 -68.5t257 68.5t186.5 186.5t68.5 257t-68.5 257t-186.5 186.5t-257 68.5zM393 228q0 -15 -10.5 -25.5t-25.5 -10.5v0q-15 0 -25.5 10.5t-10.5 25.5v312q0 15 10.5 25.5t25.5 10.5v0
q15 0 25.5 -10.5t10.5 -25.5v-312zM703 228q0 -15 -10.5 -25.5t-25.5 -10.5v0q-15 0 -25.5 10.5t-10.5 25.5v312q0 15 10.5 25.5t25.5 10.5v0q15 0 25.5 -10.5t10.5 -25.5v-312z" />
    <glyph glyph-name="pausecircleo" unicode="&#xe63f;" 
d="M512 896q-139 0 -257 -68.5t-186.5 -186.5t-68.5 -257t68.5 -257t186.5 -186.5t257 -68.5t257 68.5t186.5 186.5t68.5 257t-68.5 257t-186.5 186.5t-257 68.5zM823 73q-61 -61 -140 -94q-81 -35 -171 -35t-171 34q-79 34 -140 95t-94 140q-35 81 -35 171t34 171
q34 79 95 140t140 94q81 35 171 35t171 -34q79 -34 140 -95t94 -140q35 -81 35 -171t-34 -171q-34 -79 -95 -140zM357 576v0q-15 0 -25.5 -10.5t-10.5 -25.5v-312q0 -15 10.5 -25.5t25.5 -10.5v0q15 0 25.5 10.5t10.5 25.5v312q0 15 -10.5 25.5t-25.5 10.5zM667 576v0
q-15 0 -25.5 -10.5t-10.5 -25.5v-312q0 -15 10.5 -25.5t25.5 -10.5v0q15 0 25.5 10.5t10.5 25.5v312q0 15 -10.5 25.5t-25.5 10.5z" />
    <glyph glyph-name="clockcircle" unicode="&#xe640;" 
d="M512 896q-139 0 -257 -68.5t-186.5 -186.5t-68.5 -257t68.5 -257t186.5 -186.5t257 -68.5t257 68.5t186.5 186.5t68.5 257t-68.5 257t-186.5 186.5t-257 68.5zM769 356q0 -15 -10.5 -25.5t-25.5 -10.5h-185v0q-30 0 -51 21t-21 51v0v240q0 15 10.5 25.5t25.5 10.5v0
q15 0 25.5 -10.5t10.5 -25.5v-240h185q15 0 25.5 -10.5t10.5 -25.5v0z" />
    <glyph glyph-name="clockcircleo" unicode="&#xe641;" 
d="M512 896q-139 0 -257 -68.5t-186.5 -186.5t-68.5 -257t68.5 -257t186.5 -186.5t257 -68.5t257 68.5t186.5 186.5t68.5 257t-68.5 257t-186.5 186.5t-257 68.5zM823 73q-61 -61 -140 -94q-81 -35 -171 -35t-171 34q-79 34 -140 95t-94 140q-35 81 -35 171t34 171
q34 79 95 140t140 94q81 35 171 35t171 -34q79 -34 140 -95t94 -140q35 -81 35 -171t-34 -171q-34 -79 -95 -140zM733 392h-185v240q0 15 -10.5 25.5t-25.5 10.5v0q-15 0 -25.5 -10.5t-10.5 -25.5v-240v0q0 -30 21 -51t51 -21v0h185q15 0 25.5 10.5t10.5 25.5v0
q0 15 -10.5 25.5t-25.5 10.5z" />
    <glyph glyph-name="swap" unicode="&#xe642;" 
d="M194 481q-1 0 -1 0.5t-0.5 0.5h-0.5h-0.5h-0.5h-0.5h-0.5v0h-1h-0.5h-0.5v0l-0.5 0.5l-0.5 0.5h-0.5h-0.5h-0.5h-0.5h-1l-1 1v0v0h-0.5h-0.5l-0.5 0.5l-0.5 0.5h-0.5h-0.5h-1v1h-0.5h-0.5l-0.5 0.5l-0.5 0.5h-0.5h-0.5v0.5v0.5h-1l-1 1v0l-0.5 0.5l-0.5 0.5h-1q-1 2 -2 3
q-1 0 -1 0.5v0.5v0l-1 1v1h-1v1v0l-0.5 0.5l-0.5 0.5v0v0.5t-0.5 0.5h-0.5v1l-0.5 0.5l-0.5 0.5v1v0v0.5t-0.5 0.5h-0.5v0.5v0.5q0 1 -0.5 1t-0.5 0.5v1v0.5v0v0v0.5v0.5v0.5v0.5l-1 1v0.5v0.5v0.5v0.5v0v0.5v0.5v1v0v1v4v1v0.5v0.5v0.5v0.5v0.5v0.5v0.5v0.5v0l1 1v0.5v0.5
v0.5v0.5v0v0.5v0.5v0q1 1 1 1.5v0.5v0.5v0.5l0.5 0.5l0.5 0.5v0v0.5v0.5l0.5 0.5l0.5 0.5v0.5t0.5 1l0.5 0.5v0v0v0.5t0.5 0.5t0.5 0.5v0.5l0.5 0.5l0.5 0.5q0 1 1 1v0v1h1l0.5 0.5l0.5 0.5l178 178q10 11 25 11t25 -11v0q11 -11 11 -25.5t-11 -25.5l-116 -116h545
q15 0 25.5 -10.5t10.5 -25.5v0q0 -15 -10.5 -25.5t-25.5 -10.5h-631v0h-2h-0.5h-0.5zM830 287q1 0 1 -0.5t0.5 -0.5h0.5h0.5h0.5h0.5h0.5v0v0h2v0v0l0.5 -0.5l0.5 -0.5h0.5h0.5h0.5h0.5h1v-1h1v0h0.5h0.5l0.5 -0.5l0.5 -0.5h0.5h0.5h1v-1h0.5h0.5l0.5 -0.5l0.5 -0.5h0.5h0.5
v-0.5v-0.5h1l1 -1l0.5 -0.5l0.5 -0.5v0h1q1 -2 2 -3q1 0 1 -0.5v-0.5v0l1 -1v-1h1v-1h0.5t0.5 -0.5v-0.5v0v-0.5t0.5 -0.5t0.5 -0.5v-0.5l0.5 -0.5l0.5 -0.5v-0.5v-0.5v-0.5t0.5 -0.5h0.5v-0.5v-0.5v-1l0.5 -0.5t0.5 -1v-0.5v0v-0.5v-0.5v0v-0.5v-0.5l1 -1v-0.5v-0.5v-0.5
v-0.5v0v-0.5v-0.5v-1v0v-1v-4v-1v-0.5v-1v-0.5v0v-0.5v-0.5v-0.5v-0.5v0l-1 -1v-0.5v-0.5v-0.5v-0.5v0v-0.5v-0.5l-1 -1v-0.5v-0.5v-0.5v-0.5l-0.5 -0.5l-0.5 -0.5v0v-0.5v-0.5l-0.5 -0.5l-0.5 -0.5v-0.5t-0.5 -1l-0.5 -0.5v0v0v-0.5t-0.5 -0.5t-0.5 -0.5v-0.5l-1 -1v0
q0 -1 -0.5 -1h-0.5v-1h-1l-0.5 -0.5t-0.5 -1.5l-177 -177q-11 -11 -26 -11t-25 11v0q-11 10 -11 25t11 26l116 116h-545q-14 0 -25 10.5t-11 25.5v0q0 15 11 25.5t25 10.5h632v0h1h1z" />
    <glyph glyph-name="swapleft" unicode="&#xe643;" 
d="M164 320h-1l-0.5 0.5l-0.5 0.5h-0.5h-0.5h-0.5h-0.5v0h-1h-1v0v0l-0.5 0.5l-0.5 0.5h-0.5h-0.5h-0.5h-0.5h-1l-1 1v0v0h-0.5h-0.5l-0.5 0.5l-0.5 0.5h-0.5h-0.5h-1v1h-0.5h-0.5l-0.5 0.5l-0.5 0.5h-0.5h-0.5v0.5v0.5h-1l-1 1v0l-0.5 0.5l-0.5 0.5h-1q-1 2 -2 3
q-1 0 -1 0.5v0.5v0l-1 1v1h-1v1v0l-0.5 0.5l-0.5 0.5v0v0.5t-0.5 0.5h-0.5v1l-0.5 0.5l-0.5 0.5v1v0v0.5t-0.5 0.5h-0.5v0.5v0.5q0 1 -0.5 1t-0.5 0.5v1v0.5v0v0.5v0.5v0v0.5v0.5l-1 1v0.5v0.5v0.5v0.5v0v0.5v0.5v1v1v0v4v1v0.5v0.5v0.5v0.5v0.5v0.5v0.5v0.5v0l1 1v0.5v0.5
v0.5v0.5v0v0.5v0.5v1q1 0 1 0.5v0.5v0.5v0.5l0.5 0.5l0.5 0.5v0v1v0l0.5 0.5l0.5 0.5v1l0.5 0.5l0.5 0.5v0v0v0.5t0.5 0.5t0.5 0.5v0.5l0.5 0.5l0.5 0.5q0 1 0.5 1h0.5v1h1l0.5 0.5t0.5 1.5l178 177q10 11 25 11t25 -11v0q11 -11 11 -25.5t-11 -25.5l-116 -116h545
q15 0 25.5 -10.5t10.5 -25.5v0q0 -15 -10.5 -25.5t-25.5 -10.5h-631v0h-2h-1z" />
    <glyph glyph-name="swapright" unicode="&#xe644;" 
d="M830 320h1l0.5 0.5l0.5 0.5h0.5h0.5h0.5h0.5v0v0h2v0v0l0.5 0.5l0.5 0.5h0.5h0.5h0.5h0.5h1v1h1v0h0.5h0.5l0.5 0.5l0.5 0.5h0.5h0.5h1v1h0.5h0.5l0.5 0.5l0.5 0.5h0.5h0.5v0.5v0.5h1l1 1v0.5t0.5 0.5h0.5h1q1 2 2 3q1 0 1 0.5v0.5v0l1 1v1h1v1h0.5t0.5 0.5v0.5v0v0.5
t0.5 0.5t0.5 0.5v0.5l0.5 0.5l0.5 0.5v0.5v0.5v0.5t0.5 0.5h0.5v0.5v0.5v1l0.5 0.5t0.5 1v0.5v0v0v0.5v0.5v0.5v0.5l1 1v0.5v0.5v0.5v0.5v0v0.5v0.5v1v1v0v4v1v0.5v0.5v0.5v0.5v0.5v0.5v0.5v0.5v0l-1 1v0.5v0.5v0.5v0.5v0v0.5v0.5l-1 1v0.5v0.5v0.5v0.5l-0.5 0.5l-0.5 0.5v0
v0.5v0.5l-0.5 0.5l-0.5 0.5v0.5t-0.5 1l-0.5 0.5v0v0l-0.5 0.5l-0.5 0.5v0.5v0.5l-0.5 0.5l-0.5 0.5q0 1 -1 1v0l-0.5 0.5l-0.5 0.5l-0.5 0.5t-0.5 1.5l-177 177q-11 11 -26 11t-25 -11v0q-11 -10 -11 -25t11 -26l116 -116h-545q-14 0 -25 -10.5t-11 -25.5v0q0 -15 11 -25.5
t25 -10.5h632v0h1h0.5h0.5z" />
    <glyph glyph-name="plussquareo" unicode="&#xe645;" 
d="M888 760v0v0v-753v0h-752v0v753v0h752zM888 832h-752q-30 0 -51 -21t-21 -51v-753q0 -29 21 -50.5t51 -21.5h753q29 0 50.5 21.5t21.5 50.5v753q0 30 -21.5 51t-51.5 21v0zM732 420h-184v183q0 15 -10.5 25.5t-25.5 10.5v0q-14 0 -25 -10.5t-11 -25.5v-183h-184
q-15 0 -25.5 -11t-10.5 -25v0q0 -15 10.5 -25.5t25.5 -10.5h184v-183q0 -15 11 -25.5t25 -10.5v0q15 0 25.5 10.5t10.5 25.5v183h184q15 0 25.5 10.5t10.5 25.5v0q0 14 -10.5 25t-25.5 11z" />
    <glyph glyph-name="frown" unicode="&#xe646;" 
d="M512 896q-139 0 -257 -68.5t-186.5 -186.5t-68.5 -257t68.5 -257t186.5 -186.5t257 -68.5t257 68.5t186.5 186.5t68.5 257t-68.5 257t-186.5 186.5t-257 68.5zM254 454q-25 0 -42.5 17.5t-17.5 42t17.5 42.5t42.5 18t42.5 -18t17.5 -42.5t-17.5 -42t-42.5 -17.5zM640 130
q-15 0 -25.5 11t-10.5 25q0 39 -27 66t-65 27t-65 -27t-27 -66q0 -14 -10.5 -25t-25.5 -11t-25.5 11t-10.5 25q0 68 48 116.5t116 48.5t116 -48.5t48 -116.5q0 -14 -10.5 -25t-25.5 -11zM769.5 454q-24.5 0 -42 17.5t-17.5 42t17.5 42.5t42 18t42.5 -18t18 -42.5t-18 -42
t-42.5 -17.5z" />
    <glyph glyph-name="menufold" unicode="&#xe658;" 
d="M97 695h828q15 0 25.5 10.5t10.5 25.5t-10.5 25.5t-25.5 10.5h-828q-15 0 -25.5 -10.5t-10.5 -25.5t10.5 -25.5t25.5 -10.5zM923 450h-565q-15 0 -25.5 -10.5t-10.5 -25.5t10.5 -25.5t25.5 -10.5h565q15 0 25.5 10.5t10.5 25.5t-10.5 25.5t-25.5 10.5zM925 72h-825
q-15 0 -25.5 -10.5t-10.5 -25.5t10.5 -25.5t25.5 -10.5h825q15 0 25.5 10.5t10.5 25.5t-10.5 25.5t-25.5 10.5zM195 281q11 -10 25 -10q15 0 26 11q10 10 10 25t-10 25l-96 94l94 88q11 11 11.5 26t-10 25.5t-25.5 11t-25 -9.5l-121 -114q-12 -11 -12 -26t11 -26z" />
    <glyph glyph-name="mail" unicode="&#xe659;" 
d="M886 768h-753q-30 0 -51 -21t-21 -51v-626q0 -30 21 -51t51 -21h753q30 0 51 21t21 51v626q0 30 -21 51t-51 21zM809 696l-268 -224l-2 -1l-1 -2q-11 -11 -26 -11h-1q-15 0 -25 11l-2 1l-274 226h599zM886 70h-753v0v597l303 -250q31 -31 76 -31v0q45 0 76 32l298 249
v-597v0z" />
    <glyph glyph-name="link" unicode="&#xe65b;" 
d="M542 230l-179 -179q-39 -38 -93 -38t-92 38q-39 39 -39 93t39 93l178 179q11 10 11 25t-10.5 25.5t-25.5 10.5t-25 -11l-179 -178q-60 -60 -60 -144t59.5 -143.5t143.5 -59.5t144 59l179 179q10 11 10 26t-10.5 25.5t-25.5 10.5t-25 -11zM899.5 773.5
q-59.5 59.5 -143.5 59.5t-144 -60l-179 -179q-10 -10 -10 -25t10.5 -25.5t25.5 -10.5t25 10l179 179q39 39 93 39t92.5 -38.5t38.5 -93t-39 -92.5l-178 -179q-11 -10 -11 -25t10.5 -25.5t25.5 -10.5t26 10l179 179q59 60 59 144t-59.5 143.5zM486 308l102 102q11 10 11 25
t-10.5 25.5t-25.5 10.5t-25 -11l-102 -102q-11 -10 -11 -25t10.5 -25.5t25.5 -10.5t25 11z" />
    <glyph glyph-name="areachart" unicode="&#xe65c;" 
d="M923 -64h-824q-15 0 -25.5 10.5t-10.5 25.5v825q0 15 10.5 25.5t25.5 10.5t25.5 -10.5t10.5 -25.5v-789h788q15 0 25.5 -10.5t10.5 -25.5t-10.5 -25.5t-25.5 -10.5zM192 96l117 209q4 7 12 9.5t16 -0.5l111 -52l118 171q11 15 27 7l110 -56l160 251q7 11 19.5 7.5
t12.5 -16.5v-520q0 -16 -11.5 -27.5t-27.5 -11.5h-646q-11 0 -17 9.5t-1 19.5z" />
    <glyph glyph-name="linechart" unicode="&#xe65d;" 
d="M923 -64h-824q-15 0 -25.5 10.5t-10.5 25.5v825q0 15 10.5 25.5t25.5 10.5t25.5 -10.5t10.5 -25.5v-789h788q15 0 25.5 -10.5t10.5 -25.5t-10.5 -25.5t-25.5 -10.5zM385 153q-19 0 -30 16l-157 250q-8 13 -5 27.5t15.5 22.5t27 5t22.5 -15l112 -182l46 177q4 16 19 23
l182 88q13 6 26 2.5t21 -15.5l91 -148l134 403q5 14 18 21t27 2t21 -18t2 -27l-158 -477q-7 -22 -30 -24.5t-35 16.5l-115 186l-137 -66l-62 -240q-6 -23 -29 -26q-3 -1 -6 -1z" />
    <glyph glyph-name="home" unicode="&#xe65e;" 
d="M932 454l-372 358q-20 18 -48 18t-48 -18l-372 -358q-11 -10 -12 -25t9 -26v0q10 -11 25 -12t26 9l372 358l372 -358q11 -10 26 -9t25 12v0q10 11 9 26t-12 25zM833 321v0q-15 0 -25.5 -10.5t-10.5 -25.5v-277h-143v240q0 30 -21 51t-51 21h-140q-30 0 -51 -21t-21 -51
v-240h-143v277q0 15 -10.5 25.5t-25.5 10.5v0q-15 0 -25.5 -10.5t-10.5 -25.5v-277q0 -30 21 -51t51 -21h570q30 0 51 21t21 51v277q0 15 -10.5 25.5t-25.5 10.5zM442 248h140v-240h-140v240z" />
    <glyph glyph-name="laptop" unicode="&#xe65f;" 
d="M887 760v0v0v-559v0l-752 -1v0v560v0h752zM887 832h-752q-30 0 -51 -21t-21 -51v-559q0 -30 21 -51t51 -21h752q30 0 51 21t21 51v559q0 30 -21 51t-51 21v0zM923 -16h-824q-15 0 -25.5 10.5t-10.5 25.5v0q0 15 10.5 25.5t25.5 10.5h824q15 0 25.5 -10.5t10.5 -25.5v0
q0 -15 -10.5 -25.5t-25.5 -10.5z" />
    <glyph glyph-name="star" unicode="&#xe660;" 
d="M956 497.5q-8 23.5 -26.5 39t-42.5 19.5l-205 31l-92 195q-11 24 -33 37q-21 13 -45 13t-45 -13q-22 -13 -33 -37l-92 -195l-205 -31q-24 -4 -42.5 -19.5t-26.5 -39t-2.5 -47t22.5 -41.5l151 -154l-36 -218q-6 -40 20 -70.5t66 -30.5q22 0 42 11l181 100l181 -100
q20 -11 42 -11q40 0 66 30.5t20 70.5l-36 218l151 154q17 18 22.5 41.5t-2.5 47z" />
    <glyph glyph-name="staro" unicode="&#xe661;" 
d="M512 760q9 0 13 -9l105 -222q3 -7 11 -9l235 -35q9 -2 12 -10.5t-4 -14.5l-171 -176q-5 -5 -4 -12l41 -247q1 -7 -3.5 -12t-11.5 -5q-4 0 -7 2l-209 115q-3 2 -7 2t-7 -2l-209 -115q-3 -2 -7 -2q-7 0 -11.5 5t-3.5 12l41 247q1 7 -4 12l-171 176q-7 6 -4 14.5t12 9.5
l235 36q8 1 11 9l105 222q4 9 13 9zM512 832q-24 0 -45 -13q-22 -13 -33 -37l-92 -195l-205 -31q-24 -4 -42.5 -19.5t-26.5 -39t-2.5 -47t22.5 -41.5l151 -154l-36 -218q-6 -40 20 -70.5t66 -30.5q22 0 42 11l181 100l181 -100q20 -11 42 -11q40 0 66 30.5t20 70.5l-36 218
l151 154q17 18 22.5 41.5t-2.5 47t-26.5 39t-42.5 19.5l-205 31l-92 195q-11 24 -33 37q-21 13 -45 13v0z" />
    <glyph glyph-name="filter" unicode="&#xe663;" 
d="M890.5 719.5q-9.5 23.5 -30.5 37t-46 13.5h-602q-25 0 -46 -13.5t-30.5 -37t-4.5 -48t22 -42.5l273 -263v-262q0 -15 11 -25l125 -129q10 -11 26 -11q6 0 13 2q23 9 23 34v393l248 261q18 18 23 42.5t-4.5 48zM821 680l-259 -272q-10 -10 -10 -25v-322l-54 58v262
q0 15 -10 25l-284 274q-5 5 -2 11.5t10 6.5h602q7 0 9.5 -6.5t-2.5 -11.5z" />
    <glyph glyph-name="meho" unicode="&#xe666;" 
d="M512 896q-139 0 -257 -68.5t-186.5 -186.5t-68.5 -257t68.5 -257t186.5 -186.5t257 -68.5t257 68.5t186.5 186.5t68.5 257t-68.5 257t-186.5 186.5t-257 68.5zM254 454q-25 0 -42.5 17.5t-17.5 42t17.5 42.5t42.5 18t42.5 -18t17.5 -42.5t-17.5 -42t-42.5 -17.5zM643 118
h-264q-15 0 -25.5 10.5t-10.5 25.5t10.5 25.5t25.5 10.5h264q15 0 25.5 -10.5t10.5 -25.5t-10.5 -25.5t-25.5 -10.5zM769.5 454q-24.5 0 -42 17.5t-17.5 42t17.5 42.5t42 18t42.5 -18t18 -42.5t-18 -42t-42.5 -17.5z" />
    <glyph glyph-name="meh" unicode="&#xe667;" 
d="M512 896q-139 0 -257 -68.5t-186.5 -186.5t-68.5 -257t68.5 -257t186.5 -186.5t257 -68.5t257 68.5t186.5 186.5t68.5 257t-68.5 257t-186.5 186.5t-257 68.5zM823 73q-61 -61 -140 -94q-81 -35 -171 -35t-171 34q-79 34 -140 95t-94 140q-35 81 -35 171t34 171
q34 79 95 140t140 94q81 35 171 35t171 -34q79 -34 140 -95t94 -140q35 -81 35 -171t-34 -171q-34 -79 -95 -140zM254 514zM194 513.5q0 24.5 17.5 42.5t42.5 18t42.5 -18t17.5 -42.5t-17.5 -42t-42.5 -17.5t-42.5 17.5t-17.5 42zM770 514zM710 513.5q0 24.5 17.5 42.5
t42 18t42.5 -18t18 -42.5t-18 -42t-42.5 -17.5t-42 17.5t-17.5 42zM643 190h-264q-15 0 -25.5 -10.5t-10.5 -25.5t10.5 -25.5t25.5 -10.5h264q15 0 25.5 10.5t10.5 25.5t-10.5 25.5t-25.5 10.5z" />
    <glyph glyph-name="shoppingcart" unicode="&#xe668;" 
d="M923 194h-596l30 61l497 1q13 0 22.5 8t11.5 20l69 386q3 16 -7.5 28t-26.5 12l-632 3l-5 25q-3 12 -13 20t-22 8h-155q-14 0 -24.5 -10.5t-10.5 -25t10.5 -25t24.5 -10.5h126l24 -112l58 -281l-75 -122q-13 -18 -3 -37t32 -19h63q-21 -28 -21 -62q0 -43 30 -73t72.5 -30
t72.5 30t30 73q0 34 -20 62h161q-21 -28 -21 -62q0 -43 30 -73t72.5 -30t72.5 30t30 73q0 34 -20 62h113q15 0 25 10t10 24.5t-10 25t-25 10.5zM306 643l576 -2l-57 -316l-452 -1zM403 30q-13 0 -22.5 9.5t-9.5 22.5t9.5 22.5t22.5 9.5t22 -9.5t9 -22.5t-9 -22.5t-22 -9.5z
M728 30q-13 0 -22.5 9.5t-9.5 22.5t9.5 22.5t22.5 9.5t22 -9.5t9 -22.5t-9 -22.5t-22 -9.5z" />
    <glyph glyph-name="save" unicode="&#xe669;" 
d="M650 768h-450q-30 0 -51 -21t-21 -51v-623q0 -30 21 -51t51 -21h623q30 0 51 21t21 51v450zM329 696h217v-206q0 -15 -10.5 -25.5t-25.5 -10.5h-145q-15 0 -25.5 10.5t-10.5 25.5v206zM823 73h-623v623h57v-206q0 -45 31.5 -76.5t76.5 -31.5h145q44 0 76 32t32 76v206h2
l203 -203v-420v0zM469 526q15 0 25.5 10.5t10.5 25.5v43q0 15 -10.5 25.5t-25.5 10.5t-25.5 -10.5t-10.5 -25.5v-43q0 -15 10.5 -25.5t25.5 -10.5z" />
    <glyph glyph-name="user" unicode="&#xe66a;" 
d="M819 103q-25 60 -71 106t-106 71q-20 9 -42 15q61 20 107 66q81 81 81 195t-81 194.5t-195 80.5t-194.5 -80.5t-80.5 -194.5t80 -195q46 -46 107 -66q-23 -6 -42 -15q-60 -25 -106 -71t-71 -106q-26 -62 -26 -130q0 -15 10.5 -25.5t25.5 -10.5t25.5 10.5t10.5 25.5
q0 108 76.5 185t185 77t185 -76.5t76.5 -185.5q0 -15 10.5 -25.5t25.5 -10.5t25.5 10.5t10.5 25.5q-1 68 -27 130zM309 556q0 84 59.5 143.5t143.5 59.5t143.5 -59.5t59.5 -143.5t-59.5 -144t-143.5 -60t-143.5 60t-59.5 144z" />
    <glyph glyph-name="videocamera" unicode="&#xe66b;" 
d="M1010 573q-11 10 -26 10q-9 0 -18 -5l-126 -67v188q0 29 -20.5 50t-50.5 21h-698q-29 0 -50 -21t-21 -50v-630q0 -29 21 -50t50 -21h698q30 0 50.5 21t20.5 50v203l123 -79q10 -6 22 -6q13 0 25 9q14 12 14 31v316q0 18 -14 30zM945 477v-178l-103 66v57zM761 667v-566
q0 -10 -6.5 -17t-16.5 -7h-636q-9 0 -16 7t-7 17v566q0 10 7 17t16 7h636q10 0 16.5 -7t6.5 -17z" />
    <glyph glyph-name="totop" unicode="&#xe66c;" 
d="M920 74h-816q-15 0 -25.5 -10.5t-10.5 -25.5t10.5 -25.5t25.5 -10.5h816q15 0 25.5 10.5t10.5 25.5t-10.5 25.5t-25.5 10.5zM365.5 576q14.5 0 25.5 10l85 85v-449q0 -15 10.5 -25.5t25.5 -10.5t25.5 10.5t10.5 25.5v449l85 -85q10 -10 25 -10t25.5 10.5t10.5 25.5
t-10 25l-146 146q-11 11 -26 11t-25 -11l-147 -146q-10 -11 -10 -25.5t10.5 -25t25 -10.5z" />
    <glyph glyph-name="team" unicode="&#xe66d;" 
d="M839 409q-30 30 -67 47q44 23 72 64q35 51 35 113q0 84 -59 142.5t-142 58.5q-65 0 -117 -36q-45 -33 -67 -83q-60 64 -147 64q-84 0 -143 -59t-59 -142q0 -62 35 -113q28 -41 73 -65q-38 -17 -68 -47q-67 -67 -67 -161v-165q0 -37 26.5 -64t64.5 -27h276q27 0 49.5 15.5
t33.5 40.5h248q37 0 64 26.5t27 63.5v165q-1 95 -68 162zM586 725q38 38 92 38t92 -38t38 -91.5t-38 -92t-92 -38.5t-92 38t-38 92t38 92zM216 578q0 54 38 92t92 38t92 -38t38 -92t-38 -92t-92 -38t-92 38t-38 92zM504 27q0 -8 -6 -13.5t-14 -5.5h-276q-8 0 -13.5 5.5
t-5.5 13.5v165q0 65 46 111t111 46t112 -46l1 -1v-1q45 -46 45 -109v-165zM486 372q-21 17 -46 28q62 33 90 96q24 -25 54 -40q-38 -17 -68 -47q-17 -17 -30 -37zM835 82q0 -8 -5.5 -13.5t-13.5 -5.5h-241v129q0 69 -38 126q12 23 29 40q47 47 112 47t111 -46.5t46 -111.5
v-165z" />
    <glyph glyph-name="sharealt" unicode="&#xe671;" 
d="M814 233q-38 0 -70.5 -18t-53.5 -49l-236 168q6 24 6 48q0 39 -15 75l257 130q45 -51 112 -51q61 0 104.5 43.5t43.5 104.5t-43.5 104.5t-104.5 43.5t-104.5 -43.5t-43.5 -104.5q0 -17 4 -33l-264 -133q-59 62 -144 62q-82 0 -140 -58t-58 -140t58 -140t140 -58
q49 0 91.5 22.5t69.5 60.5l243 -172v-10q0 -61 43.5 -104.5t104.5 -43.5t104.5 43.5t43.5 104.5t-43.5 104.5t-104.5 43.5zM814 760q31 0 53.5 -22.5t22.5 -54t-22.5 -53.5t-53.5 -22t-53.5 22t-22.5 53.5t22.5 54t53.5 22.5zM262 256q-52 0 -89 37t-37 89t37 89t89 37
t89 -37t37 -89t-37 -89t-89 -37zM814 9q-31 0 -53.5 22t-22.5 53.5t22.5 54t53.5 22.5t53.5 -22.5t22.5 -54t-22.5 -53.5t-53.5 -22z" />
    <glyph glyph-name="setting" unicode="&#xe672;" 
d="M962 456l-4 24l-73 25q-10 30 -24 58l34 69l-14 19q-43 60 -102 103l-20 14l-69 -35q-28 14 -58 24l-24 73l-24 4q-39 6 -72 6t-72 -6l-24 -4l-25 -73q-30 -10 -57 -24l-69 35l-20 -15q-59 -43 -102 -102l-14 -20l34 -69q-14 -28 -24 -57l-73 -25l-4 -24q-6 -39 -6 -72
t6 -72l4 -24l73 -25q10 -30 24 -57l-34 -69l14 -20q22 -30 47 -55q23 -23 55 -47l20 -14l69 34q28 -14 57 -24l25 -73l24 -4q39 -6 72 -6t72 6l24 4l25 73q29 10 57 24l69 -35l20 15q32 23 55 47q24 23 47 55l14 20l-34 69q14 28 24 58l73 24l4 24q6 39 6 72t-6 72zM896 385
v-1q0 -19 -2 -42l-36 -11l-31 -11l-10 -32q-8 -27 -21 -52l-16 -29l32 -63q-14 -17 -28 -31v-1q-14 -14 -32 -27l-62 31l-29 -15q-26 -13 -54 -22l-31 -10l-10 -31l-12 -35q-21 -3 -42 -3q-19 0 -42 3l-11 35l-11 31l-31 10q-28 9 -53 22l-29 15l-30 -15l-33 -16
q-17 13 -31 28q-15 14 -28 31l31 62l-15 29q-14 27 -22 53l-10 32l-66 22q-3 21 -3 42q0 19 3 42l66 22l10 31q8 27 22 53l15 30l-15 29l-16 33q26 33 59 59l62 -31l30 15q25 14 53 22l31 10l10 31l12 36q23 2 42 2q20 0 42 -2l22 -67l31 -9q28 -9 54 -22l29 -16l62 32
q33 -27 60 -60l-32 -62l15 -29q14 -26 23 -53l9 -32l31 -10l36 -12q3 -22 2 -41zM512 558q-72 0 -123 -51t-51 -123t51 -123t123 -51t123 51t51 123t-51 123t-123 51zM584 312q-30 -30 -72 -30t-72 30t-30 72t30 72t72.5 30t72 -30t29.5 -72t-30 -72z" />
    <glyph glyph-name="picture" unicode="&#xe674;" 
d="M886 768h-752q-30 0 -51 -21.5t-21 -50.5v-626q0 -29 21 -50.5t51 -21.5h752q30 0 51 21.5t21 50.5v626q0 30 -21 51t-51 21zM886 70v0h-752v0v213l186 190l217 -270q9 -10 22.5 -11.5t24.5 5.5l161 109l141 -67v-169zM886 330l-118 48q-21 16 -42 2l-156 -105l-222 275
q-10 12 -26 12t-27 -11l-161 -165v310v0h752v0v-366zM696 622q-42 0 -71.5 -29.5t-29.5 -71.5t29.5 -71.5t71.5 -29.5t71.5 29.5t29.5 71.5t-29.5 71.5t-71.5 29.5zM696 492q-12 0 -20.5 8.5t-8.5 20.5t8.5 20.5t20.5 8.5t20.5 -8.5t8.5 -20.5t-8.5 -20.5t-20.5 -8.5z" />
    <glyph glyph-name="phone" unicode="&#xe675;" 
d="M914 733q-66 101 -128 101q-36 0 -64 -28q-48 -48 -77 -93q-44 -68 -29 -115q4 -15 17.5 -31t44.5 -47v0q32 -32 38 -41q10 -14 -19 -60q-27 -43 -99 -118q-61 -58 -99 -85q-48 -35 -71 -35q-5 0 -8 2q-9 7 -41 38q-32 32 -47.5 45t-30.5 17q-12 4 -25 4q-43 0 -100 -40
q-40 -27 -82 -70q-33 -32 -28 -73q6 -57 100 -119q78 -50 176 -50q101 0 210.5 53.5t206.5 151.5q68 68 117 144q48 76 70 153q49 170 -32 296zM878 457q-20 -67 -63 -135q-43 -69 -106 -132q-44 -44 -92 -80q-47 -34 -95 -58q-47 -22 -93 -34q-45 -12 -87 -12
q-77 0 -137 39q-35 23 -52 40q-16 16 -17 27q-1 7 8 15q39 39 72 62q39 27 60 27q2 0 3 -1q5 -2 12 -9q11 -9 38 -35q35 -36 49 -46l2 -1q21 -14 48 -14q24 0 52 12q27 11 61 36q41 30 106 91l1 1l2 2q76 80 107 129q16 25 24 47q7 20 8 37q2 31 -15 55q-10 14 -44 48l-2 2
q-26 26 -35 37q-7 9 -9 13q-4 16 21 55q24 37 67 80v0q8 8 14 8q10 0 26 -15q18 -17 42 -54q31 -48 38 -106q6 -62 -14 -131z" />
    <glyph glyph-name="paperclip" unicode="&#xe676;" 
d="M885 629q-73 72 -177 72v0q-49 0 -94 -18q-46 -18 -82 -53l-233 -231q-42 -41 -41.5 -99.5t42 -100t100.5 -41.5h1q59 0 100 41l205 202q10 10 10 25t-10 25q-11 10 -25.5 10t-25.5 -10l-204 -202q-21 -21 -50 -21h-1q-30 1 -50 21q-21 21 -21 50.5t20 49.5l233 231
q52 50 126 50v0q74 0 126.5 -51.5t52.5 -124.5t-52 -124l-247 -245q-76 -75 -186 -75v0q-110 0 -187 76.5t-77.5 184.5t76.5 184l319 316q10 10 10 24.5t-10 25.5q-11 10 -25.5 10t-25.5 -10l-319 -316q-47 -47 -73 -109q-24 -60 -24 -125t25 -125q25 -62 73 -110
q48 -47 111 -72q60 -25 127 -25v0q66 0 126 24q63 25 110 72l248 245q35 35 54 81q18 45 18 93q0 103 -73 175z" />
    <glyph glyph-name="notification" unicode="&#xe677;" 
d="M922 518h-57v18q0 20 -14 34.5t-34 14.5h-172q-12 24 -33 24q-70 0 -145 22.5t-132 54.5t-103 63.5t-72 54t-25 22.5q-10 6 -22 6q-19 0 -33 -13.5t-14 -33.5v-801q0 -20 14 -34t33 -14q13 0 24 7q4 6 12.5 15t35 36t55.5 52t73.5 55t89 51.5t101 36.5t111.5 15
q19 0 30 22h4q2 -74 -25 -171q-6 -20 1.5 -39.5t24.5 -31.5q16 -10 35 -10q22 0 40 15q84 69 105 169q7 34 6 68q4 5 10 14q19 29 19 45v23h57q15 0 25.5 10.5t10.5 25.5v138q0 15 -10.5 25.5t-25.5 10.5zM584 275q-92 -6 -186 -46q-84 -36 -167 -98q-48 -37 -93 -81v679
q50 -39 104 -73q83 -51 165 -81q91 -33 177 -37v-2v-7v-253v-1zM793 291q-6 -10 -14 -21q-5 -3 -8 -7q-11 -13 -8 -30v0q4 -27 -3 -60q-13 -62 -59 -109q29 116 18 202q-2 14 -12 23t-24 9h-25v30q0 4 -2 9v176h137v-222zM886 380h-21v66h21v-66z" />
    <glyph glyph-name="menuunfold" unicode="&#xe679;" 
d="M925 695h-828q-15 0 -25.5 10.5t-10.5 25.5t10.5 25.5t25.5 10.5h828q15 0 25.5 -10.5t10.5 -25.5t-10.5 -25.5t-25.5 -10.5zM99 450h565q15 0 25.5 -10.5t10.5 -25.5t-10.5 -25.5t-25.5 -10.5h-565q-15 0 -25.5 10.5t-10.5 25.5t10.5 25.5t25.5 10.5zM97 72h825
q15 0 25.5 -10.5t10.5 -25.5t-10.5 -25.5t-25.5 -10.5h-825q-15 0 -25.5 10.5t-10.5 25.5t10.5 25.5t25.5 10.5zM827 281q-11 -10 -26 -10t-25 11q-11 10 -11 25t11 25l96 94l-94 88q-11 11 -11.5 26t9.5 25.5t25 11t26 -9.5l121 -114q11 -11 11 -26t-11 -26z" />
    <glyph glyph-name="inbox" unicode="&#xe67a;" 
d="M885 450v0l-112 286q-4 12 -14 19.5t-23 7.5h-455q-13 0 -23 -8t-14 -20l-105 -282v-1v0q-2 -8 -1 -15v-5v-366q0 -25 17.5 -43t42.5 -18h628q25 0 43 18t18 43v366q0 3 -1 4q1 7 -1 14zM589 493v-16q0 -34 -21.5 -54.5t-55.5 -20.5t-55 20.5t-21 54.5l-1 16h-205l79 193
h399l82 -193h-201zM214 416h158q18 -43 55 -67t85 -24q52 0 90 27q34 24 51 64h157v-334h-596v334z" />
    <glyph glyph-name="lock" unicode="&#xe67b;" 
d="M801 596q-24 60 -67 106q-43 45 -100 71q-58 26 -122 26t-122 -26q-56 -26 -99.5 -71.5t-67.5 -105.5q-25 -61 -25 -128v-436q0 -26 18 -45t43 -19h505q26 0 44 19t18 45v385v17v34q0 67 -25 128zM414 714h1l1 1q45 21 96 21q50 0 96 -21q45 -20 80 -57t54 -85
q21 -50 21 -105v-27h-502v0v27q0 55 20 105q20 48 55 85t78 56zM763 377v-345v-1h-502v1v345h502zM483 235v-83q0 -12 8.5 -20.5t20.5 -8.5t21 8.5t9 20.5v83q24 16 24 46q0 22 -15.5 38t-38 16t-38.5 -16t-16 -38q0 -30 25 -46z" />
    <glyph glyph-name="qrcode" unicode="&#xe67c;" 
d="M876 492h-63v-103h-91v103h-153v102h-51v39h51v52h51v63h-51v51h-166v-63h103v-39h-52v-115h52v-90h-52v-52h-90v52h-63v-52h-39v52h-115v-52h-51v-63h63v51h91v-51h51v-102h63v102h102v52h193v-40h-153v-63h51v-102h114v63h-51v39h205v51h39v-51h63v63h-51v103zM466 287
h-63v-166h51v-39h-51v-63h103v-51h63v51h51v63h-63v-51h-39v90h102v64h-154v102zM96 338h63v-63h-63v63zM153 531h154q23 0 40 17t17 40v154q0 23 -17 40t-40 17h-154q-23 0 -40 -17t-17 -40v-154q0 -23 17 -40t40 -17zM159 594v142h142v-142h-142zM198 697h64v-64h-64v64z
M870 799h-154q-23 0 -40 -17t-17 -40v-154q0 -23 17 -40t40 -17h154q24 0 40.5 17t16.5 40v154q0 23 -16.5 40t-40.5 17zM864 736v-142h-142v142h142zM762 697h63v-64h-63v64zM870 236h-154q-23 0 -40 -17t-17 -40v-154q0 -24 17 -40.5t40 -16.5h154q24 0 40.5 16.5
t16.5 40.5v154q0 23 -16.5 40t-40.5 17zM864 173v-142h-142v142h142zM762 133h63v-63h-63v63zM307 236h-154q-23 0 -40 -17t-17 -40v-154q0 -24 17 -40.5t40 -16.5h154q23 0 40 16.5t17 40.5v154q0 23 -17 40t-40 17zM301 173v-142h-142v142h142zM198 133h64v-63h-64v63z
" />
    <glyph glyph-name="tags" unicode="&#xe67d;" 
d="M910 352l-360 362q-12 13 -30 13h-362q-26 0 -44 -18t-18 -43v-224q0 -17 12 -30l359 -354q18 -18 43.5 -18t44.5 18l28 28l28 -28q19 -18 44 -18t44 18l210 208q18 17 18 42.5t-17 43.5zM280 457q-32 0 -54.5 22.5t-22.5 54.5t22.5 54.5t54.5 22.5t54.5 -22.5
t22.5 -54.5t-22.5 -54.5t-54.5 -22.5v0zM869 306l-210 -207q-2 -2 -4 -2t-4 2l-32 31l142 140q16 16 16 39t-16 39l-319 322h72l355 -358q1 -1 1 -3t-1 -3v0zM869 306zM280 560q-11 0 -18.5 -7.5t-7.5 -18.5t7.5 -18.5t18.5 -7.5t18.5 7.5t7.5 18.5t-7.5 18.5t-18.5 7.5v0z
" />
    <glyph glyph-name="tagso" unicode="&#xe67e;" 
d="M280 617q-34 0 -58.5 -24t-24.5 -58.5t24.5 -59t58.5 -24.5t58.5 24.5t24.5 59t-24.5 58.5t-58.5 24zM280 514q-8 0 -14 6t-6 14t6 14t14 6t14 -6t6 -14t-6 -14t-14 -6zM910 352l-360 362q-12 13 -30 13h-362q-26 0 -44 -18t-18 -43v-224q0 -17 12 -30l359 -354
q18 -18 43.5 -18t44.5 18l28 28l28 -28q19 -18 44 -18t44 18l210 208q18 17 18 42.5t-17 43.5zM765 266q18 17 18 42.5t-18 43.5l-309 312h56l351 -355l-208 -205l-27 26zM159 451v213h209l351 -355l-140 -138l-37 -36l-31 -31z" />
    <glyph glyph-name="cloudo" unicode="&#xe67f;" 
d="M702 35h-404q-48 0 -90.5 17t-76.5 50q-34 34 -52 76t-18 90q0 83 53 147q19 23 42 40q0 38 15 71q14 33 41 60l1 1q27 26 61 39.5t72 13.5q12 0 24 -1q24 26 54 46q72 48 159 48q58 0 109 -20q51 -21 92 -61q42 -41 63 -90q14 -34 19 -71q32 -25 55 -60l7 -11v-1
q35 -59 35 -128q0 -52 -19 -99q-20 -46 -58 -83t-84 -56q-47 -18 -100 -18zM263 535q-18 -17 -26 -37v0q-9 -21 -9 -44q0 -7 1 -13l2 -23l-19 -12q-24 -14 -43 -37v0q-36 -44 -36 -101q0 -33 12 -62t36.5 -52.5t53.5 -35.5q29 -11 63 -11h404q39 0 72.5 13.5t61 40
t41.5 59.5t14 71q0 54 -29 98l-2 4q-20 29 -49 49l-14 10l-2 17q-2 34 -15 64q-15 37 -47 67q-31 31 -68 46q-38 15 -82 15q-66 0 -119 -35q-30 -21 -51 -48l-15 -19l-23 6q-14 4 -30 3q-24 0 -44.5 -8t-37.5 -25z" />
    <glyph glyph-name="cloud" unicode="&#xe680;" 
d="M926 411v1l-1 2q-26 39 -65 66q-3 43 -20 82q-20 48 -59 86t-88 58q-48 19 -103 19q-84 0 -152 -45q-38 -26 -65 -61q-21 5 -42 5q-34 0 -64 -12t-54 -35q-25 -24 -37 -53q-13 -30 -13 -64q0 -10 1 -18q-31 -19 -56 -49q-48 -59 -48 -135q0 -44 16 -83t48 -70t71 -46.5
t84 -15.5h440q50 0 94 17q44 18 79 53q36 35 54 78t18 92q0 70 -38 128z" />
    <glyph glyph-name="cloudupload" unicode="&#xe681;" 
d="M926 411v1l-1 2q-26 39 -65 66q-3 43 -20 82q-20 48 -59 86t-88 58q-48 19 -103 19q-84 0 -152 -45q-38 -26 -65 -61q-21 5 -42 5q-34 0 -64 -12t-54 -35q-25 -24 -37 -53q-13 -30 -13 -64q0 -10 1 -18q-31 -19 -56 -49q-48 -59 -48 -135q0 -44 16 -83t48 -70t71 -46.5
t84 -15.5h440q50 0 94 17q44 18 79 53q36 35 54 78t18 92q0 70 -38 128zM751.5 367.5q-10.5 -10.5 -25.5 -10.5t-26 11l-68 68v-246q0 -15 -10.5 -25.5t-25.5 -10.5t-25.5 10.5t-10.5 25.5v246l-68 -69q-11 -10 -25.5 -10t-25 10.5t-10.5 25.5t10 25l130 130q10 10 25 10
t25 -10l130 -130q11 -10 11 -25t-10.5 -25.5z" />
    <glyph glyph-name="clouddownload" unicode="&#xe682;" 
d="M926 411v1l-1 2q-26 39 -65 66q-3 43 -20 82q-20 48 -59 86t-88 58q-48 19 -103 19q-84 0 -152 -45q-38 -26 -65 -61q-21 5 -42 5q-34 0 -64 -12t-54 -35q-25 -24 -37 -53q-13 -30 -13 -64q0 -10 1 -18q-31 -19 -56 -49q-48 -59 -48 -135q0 -44 16 -83t48 -70t71 -46.5
t84 -15.5h440q50 0 94 17q44 18 79 53q36 35 54 78t18 92q0 70 -38 128zM751 294l-129 -130q-11 -10 -26 -10t-25 10l-130 130q-10 10 -10 25t10.5 25.5t25 10.5t25.5 -11l68 -68v246q0 15 10.5 25.5t25.5 10.5t25.5 -10.5t10.5 -25.5v-246l69 68q10 11 25 11t25.5 -10.5
t10.5 -25.5t-11 -25z" />
    <glyph glyph-name="clouddownloado" unicode="&#xe683;" 
d="M926 411v1l-1 2q-26 39 -65 66q-3 43 -20 82q-20 48 -59 86t-88 58q-48 19 -103 19q-84 0 -152 -45q-38 -26 -65 -61q-21 5 -42 5q-34 0 -64 -12t-54 -35q-25 -24 -37 -53q-13 -30 -13 -64q0 -10 1 -18q-31 -19 -56 -49q-48 -59 -48 -135q0 -44 16 -83t48 -70t71 -46.5
t84 -15.5h440q50 0 94 17q44 18 79 53q36 35 54 78t18 92q0 70 -38 128zM142 203q-11 25 -11 55q0 25 8 47t24 42h1q17 22 40 35l38 22l-6 43q-1 5 -1 13q0 19 7 36v1q7 16 21 29t31 20t36 7q15 0 28 -4l43 -12l26 36q21 27 51 48q50 33 111 33q42 0 77 -15q36 -14 65 -42
q29 -29 43 -63q13 -29 15 -63l1 -31l27 -18q27 -18 46 -45l2 -3q14 -21 21 -43.5t7 -47.5q0 -35 -13 -65t-38.5 -54.5t-55.5 -36.5q-31 -13 -67 -13h-440q-31 0 -57 11q-25 10 -48 31q-21 21 -31 45v0zM466.5 355q14.5 0 25.5 -11l68 -68v246q0 15 10.5 25.5t25.5 10.5
t25.5 -10.5t10.5 -25.5v-246l69 68q10 11 25 11t25.5 -10.5t10.5 -25.5t-11 -25l-129 -130q-11 -10 -26 -10t-25 10l-130 130q-10 10 -10 25t10.5 25.5t25 10.5z" />
    <glyph glyph-name="clouduploado" unicode="&#xe684;" 
d="M926 411v1l-1 2q-26 39 -65 66q-3 43 -20 82q-20 48 -59 86t-88 58q-48 19 -103 19q-84 0 -152 -45q-38 -26 -65 -61q-21 5 -42 5q-34 0 -64 -12t-54 -35q-25 -24 -37 -53q-13 -30 -13 -64q0 -10 1 -18q-31 -19 -56 -49q-48 -59 -48 -135q0 -44 16 -83t48 -70t71 -46.5
t84 -15.5h440q50 0 94 17q44 18 79 53q36 35 54 78t18 92q0 70 -38 128zM142 203q-11 25 -11 55q0 25 8 47t24 42h1q17 22 40 35l38 22l-6 43q-1 5 -1 13q0 19 7 36v1q7 16 21 29t31 20t36 7q15 0 28 -4l43 -12l26 36q21 27 51 48q50 33 111 33q42 0 77 -15q36 -14 65 -42
q29 -29 43 -63q13 -29 15 -63l1 -31l27 -18q27 -18 46 -45l2 -3q14 -21 21 -43.5t7 -47.5q0 -35 -13 -65t-38.5 -54.5t-55.5 -36.5q-31 -13 -67 -13h-440q-31 0 -57 11q-25 10 -48 31q-21 21 -31 45v0zM466.5 357q14.5 0 25.5 11l68 68v-246q0 -15 10.5 -25.5t25.5 -10.5
t25.5 10.5t10.5 25.5v246l69 -68q10 -11 25 -11t25.5 10.5t10.5 25.5t-11 25l-129 130q-11 10 -26 10t-25 -10l-130 -130q-10 -10 -10 -25t10.5 -25.5t25 -10.5z" />
    <glyph glyph-name="enviroment" unicode="&#xe685;" 
d="M512 592q-54 0 -92 -38.5t-38 -92.5t38 -92t92 -38t92 38t38 92t-38 92.5t-92 38.5zM871 621q-31 62 -86 109t-125 74q-71 26 -148 26v0q-77 0 -149 -26q-69 -27 -124 -74t-86 -109q-32 -64 -32 -133q0 -97 47 -197q39 -83 109 -164q92 -108 212 -192q10 -7 22.5 -7
t23.5 7q120 85 212 192q70 82 109 164q47 100 47 197q0 69 -32 133zM655 319q-59 -59 -143 -59t-143 59t-59 142.5t59 142.5t143 59t143 -59t59 -142.5t-59 -142.5z" />
    <glyph glyph-name="enviromento" unicode="&#xe686;" 
d="M512 663q-84 0 -143 -59t-59 -142.5t59 -142.5t143 -59t143 59t59 142.5t-59 142.5t-143 59zM512 331q-54 0 -92 38t-38 92t38 92.5t92 38.5t92 -38.5t38 -92.5t-38 -92t-92 -38zM871 621q-31 62 -86 109t-125 74q-71 26 -148 26v0q-77 0 -149 -26q-69 -27 -124 -74
t-86 -109q-32 -64 -32 -133q0 -97 47 -197q39 -83 109 -164q92 -108 212 -192q10 -7 22.5 -7t23.5 7q120 85 212 192q70 82 109 164q47 100 47 197q0 69 -32 133zM831 487q0 -81 -40 -166q-34 -73 -98 -148q-77 -90 -181 -166q-104 76 -181 166q-63 75 -98 148
q-40 85 -40 167q0 53 24 102q25 48 69 86q45 39 102 61q60 22 124 22v0q64 0 124 -22q57 -22 102 -61q45 -38 69 -86q24 -50 24 -103z" />
    <glyph glyph-name="eye" unicode="&#xe687;" 
d="M512 487q-42 0 -72 -30t-30 -72t30 -72t72 -30t72 30t30 72t-30 72t-72 30zM963 384q0 14 -21 62q-26 65 -61 109q-57 71 -139 112q-99 50 -230 50t-231 -50q-80 -41 -138 -112q-34 -43 -61 -109q-21 -48 -21 -62v0v0v0v0q0 -14 21 -62q27 -66 61 -109q57 -71 139 -112
q100 -50 230 -50t230 50q81 41 139 112q35 44 62 109q20 48 20 62v0v0v0v0zM512 212q-72 0 -122.5 50.5t-50.5 122t50.5 122.5t122.5 51t122.5 -51t50.5 -122.5t-50.5 -122t-122.5 -50.5z" />
    <glyph glyph-name="eyeo" unicode="&#xe688;" 
d="M963 384q0 14 -21 62q-26 65 -61 109q-57 71 -139 112q-99 50 -230 50t-231 -50q-80 -41 -138 -112q-34 -43 -61 -109q-21 -48 -21 -62v0v0v0v0q0 -14 21 -62q27 -66 61 -109q57 -71 139 -112q100 -50 230 -50t230 50q81 41 139 112q35 44 62 109q20 48 20 62v0v0v0v0z
M889 384q-25 -77 -64 -126h-1q-46 -59 -114 -93q-85 -42 -198.5 -42t-198.5 42q-67 34 -114 93q-40 49 -65 126q25 77 65 126q47 59 114 93q85 43 199 43t198 -43q67 -33 114 -93q40 -49 65 -126zM512 558q-72 0 -122.5 -50.5t-50.5 -122.5t50.5 -122.5t122.5 -50.5
t122.5 50.5t50.5 122.5t-50.5 122.5t-122.5 50.5zM614 385q0 -42 -30 -72t-72 -30t-72 30t-30 72t30 72t72 30t72 -30t30 -72z" />
    <glyph glyph-name="camera" unicode="&#xe689;" 
d="M899 659h-168l-94 100h-1q-10 10 -26 10h-196q-16 0 -27 -10v0l-94 -100h-168q-26 0 -44.5 -18.5t-18.5 -44.5v-532q0 -26 18.5 -44.5t44.5 -18.5l774 -1q26 0 44.5 19t18.5 45v532q0 26 -18.5 44.5t-44.5 18.5zM428 696h168l35 -37h-238zM511 164q-72 0 -123 51t-51 123
t51 123t123 51t123 -51t51 -123t-51 -123t-123 -51zM511 440q-42 0 -72 -30t-30 -72.5t30 -72.5t72.5 -30t72.5 30t30 72.5t-30 72.5t-73 30z" />
    <glyph glyph-name="camerao" unicode="&#xe68a;" 
d="M511 164q72 0 123 51t51 123t-51 123t-123 51t-123 -51t-51 -123t51 -123t123 -51zM439 410q30 30 72.5 30t72.5 -30t30 -72.5t-30 -72.5t-72.5 -30t-72.5 30t-30 72.5t30 72.5zM899 659h-168l-94 100h-1q-10 10 -26 10h-196q-16 0 -27 -10v0l-94 -100h-168
q-26 0 -44.5 -18.5t-18.5 -44.5v-532q0 -26 18.5 -44.5t44.5 -18.5l774 -1q26 0 44.5 19t18.5 45v532q0 26 -18.5 44.5t-44.5 18.5zM428 696h168l35 -37h-238zM881 81h-739v497h739v-497z" />
    <glyph glyph-name="windows" unicode="&#xe68b;" 
d="M527 27l434 -71v401h-434v-330zM527 758v-329h434v401zM68 429h367v317l-367 -61v-256zM68 99l367 -60v318h-367v-258z" />
    <glyph glyph-name="export2" unicode="&#xe690;" 
d="M248.5 473q14.5 0 25 10.5t10.5 25.5v203q0 8 5.5 13.5t13.5 5.5h567q8 0 13 -5.5t5 -13.5v-587q0 -7 -5 -12.5t-13 -5.5h-255q-15 0 -25.5 -10.5t-10.5 -25.5t10.5 -25.5t25.5 -10.5h255q37 0 63.5 26.5t26.5 63.5v587q0 38 -26.5 64t-63.5 26h-567q-38 0 -64 -26
t-26 -64v-203q0 -15 10.5 -25.5t25 -10.5zM622 263q44 66 55 136q2 14 -7 26t-23 14q-3 1 -5 1q-14 0 -24 -9t-12 -22l-3.5 -17.5t-14 -40t-26.5 -50.5q-70 -104 -206 -104h-4q-14 0 -25 -10.5t-11 -25.5v-42l-100 96l101 84v-35q0 -14 10.5 -24.5t25 -10.5t25 10.5
t10.5 24.5v111q0 23 -20 33q-7 3 -16 3q-12 0 -22 -8l-190 -159q-13 -10 -13 -26q-1 -16 11 -27l190 -181q17 -16 38.5 -7t21.5 33v91q152 13 234 136z" />
    <glyph glyph-name="export" unicode="&#xe691;" 
d="M838 330q-15 0 -25.5 -10.5t-10.5 -25.5v-204q0 -8 -5.5 -13t-12.5 -5h-567q-8 0 -13.5 5t-5.5 13v587q0 8 5.5 13.5t13.5 5.5h254q15 0 25.5 10.5t10.5 25t-10.5 25t-25.5 10.5h-254q-37 0 -63.5 -26t-26.5 -64v-587q0 -37 26.5 -63.5t63.5 -26.5h567q37 0 63.5 26.5
t26.5 63.5v204q0 15 -10.5 25.5t-25.5 10.5zM464 540q-45 -68 -54 -136q-2 -15 7 -26.5t23 -13.5q2 -1 5 -1q13 0 23.5 9t12.5 22q0 5 3 17.5t14 40t27 50.5q70 103 206 104l3 -1q15 0 25.5 10.5t10.5 25.5v42l101 -95l-101 -84v34q0 15 -10.5 25.5t-25.5 10.5t-25.5 -10.5
t-10.5 -25.5v-111q0 -22 21 -32q7 -3 15 -3q13 0 23 8l190 158q12 11 13 26q0 17 -11 28l-190 181q-17 16 -39 6.5t-22 -32.5v-91q-152 -13 -234 -136z" />
    <glyph glyph-name="circledowno" unicode="&#xe693;" 
d="M512 895q-104 0 -199 -40.5t-163.5 -109t-109 -163t-40.5 -199t40.5 -199t109 -163t163.5 -109t199 -40.5t198.5 40.5t163 109t109 163t40.5 199t-40.5 199t-109 163t-163 109t-198.5 40.5zM822 73q-61 -61 -139 -94q-82 -35 -171.5 -35t-171.5 35q-79 33 -139.5 94
t-94.5 140q-34 81 -34 170.5t35 171.5q33 79 94 139.5t140 94.5q81 34 170.5 34t171.5 -34q79 -34 139.5 -95t94.5 -139q34 -82 34 -171.5t-34 -171.5q-34 -78 -95 -139zM768 520q-16 0 -28 -12l-229 -229l-228 228q-12 12 -28.5 12t-28 -11.5t-11.5 -28t12 -28.5l256 -255
q11 -12 27.5 -12t28.5 12l257 256q12 12 12 28.5t-12 27.5q-12 12 -28 12z" />
    <glyph glyph-name="circledown" unicode="&#xe694;" 
d="M512 895q-104 0 -199 -40.5t-163.5 -109t-109 -163t-40.5 -199t40.5 -199t109 -163t163.5 -109t199 -40.5t198.5 40.5t163 109t109 163t40.5 199t-40.5 199t-109 163t-163 109t-198.5 40.5zM796 452l-258 -256q-11 -12 -27 -12q-17 0 -28 12l-256 255q-12 12 -12 28.5
t11.5 28t28 11.5t28.5 -12l227 -228l230 229q12 12 28.5 12t28 -11.5t11.5 -28.5q0 -16 -12 -28z" />
    <glyph glyph-name="hdd" unicode="&#xe69a;" 
d="M786 765v0q-4 15 -17 24.5t-29 9.5h-462q-16 0 -29 -9.5t-17 -24.5v0q-3 -8 -68 -243q-68 -245 -68 -248v-257q0 -20 14.5 -34.5t34.5 -14.5h733q20 0 34.5 14.5t14.5 34.5l1 265zM864 224v-193h-705v193h705zM861 287h-699l127 449h440zM588 70q13 0 22.5 9.5t9.5 22.5
v51q0 13 -9.5 22.5t-22.5 9.5t-22 -9.5t-9 -22.5v-51q0 -13 9 -22.5t22 -9.5zM691 70q13 0 22.5 9.5t9.5 22.5v51q0 13 -9.5 22.5t-22.5 9.5t-22 -9.5t-9 -22.5v-51q0 -13 9 -22.5t22 -9.5zM794 70q13 0 22 9.5t9 22.5v51q0 13 -9 22.5t-22 9.5t-22.5 -9.5t-9.5 -22.5v-51
q0 -13 9.5 -22.5t22.5 -9.5z" />
    <glyph glyph-name="ie" unicode="&#xe69b;" 
d="M878 548q24 66 22 118q-3 57 -37 91q-33 33 -111.5 27.5t-173.5 -47.5q-13 1 -27 1q-65 0 -126 -21q-58 -21 -107 -60q-101 -80 -132 -203l-7 -28l17 22q69 89 150 136q-22 -21 -25 -25q-73 -73 -126 -159q-49 -80 -75 -160q-25 -75 -24 -135t28 -88q37 -36 99 -36
q69 0 160 44q78 -39 168 -39q121 0 219 70t137 184l3 8h-213l-1 -3q-21 -38 -58 -60t-80.5 -22t-80.5 22t-57 60q-18 32 -19 69h319h204l1 5q2 20 2 43q0 100 -49 186zM201 222q45 -111 146 -177q-54 -23 -95 -26q-45 -3 -67 20q-23 23 -19 71t35 112zM859 578
q-30 42 -70 75q-39 32 -85 53q108 42 149 1q37 -38 6 -129zM402 423q5 57 48 96t101 39t100.5 -39t48.5 -96h-298z" />
    <glyph glyph-name="delete" unicode="&#xe69f;" 
d="M178 -50q-1 0 -3 1l1 -0.5t2 -0.5zM170 -46q-3 2 -5 3q2 -1 5 -3zM950.5 692.5q-10.5 10.5 -26.5 10.5h-184v58q0 29 -21 49.5t-50 20.5h-314q-30 0 -50.5 -20.5t-20.5 -49.5v-58h-185q-15 0 -25.5 -10.5t-10.5 -25t10.5 -25t25.5 -10.5h31v-623q0 -29 21 -49.5t50 -20.5
h632q29 0 50 20.5t21 49.5v623h20q15 0 26 10.5t11 25t-10.5 25zM354 760h315v-57h-315v57zM833 9h-632v623h91h541v-623v0zM511.5 512q-14.5 0 -25 -10.5t-10.5 -25.5v-334q0 -15 10.5 -25.5t25 -10.5t25 10.5t10.5 25.5v334q0 15 -10.5 25.5t-25 10.5zM317 512
q-15 0 -25.5 -10.5t-10.5 -25.5v-334q0 -15 10.5 -25.5t25.5 -10.5t25.5 10.5t10.5 25.5v334q0 15 -10.5 25.5t-25.5 10.5zM704 512q-15 0 -25.5 -10.5t-10.5 -25.5v-334q0 -15 10.5 -25.5t25.5 -10.5t25.5 10.5t10.5 25.5v334q0 15 -10.5 25.5t-25.5 10.5z" />
    <glyph glyph-name="enter" unicode="&#xe6a0;" 
d="M900 510v192q0 17 -11.5 28.5t-28 11.5t-28.5 -11.5t-12 -28.5v-192q0 -92 -65 -157t-157 -65h-340l113 112q11 12 11 28.5t-11.5 28t-28 11.5t-28.5 -12l-178 -178q-12 -12 -12 -28.5t12 -28.5l183 -183q12 -12 28.5 -12t28.5 11.5t12 28t-12 28.5l-114 114h336
q125 0 213.5 88.5t88.5 213.5z" />
    <glyph glyph-name="pushpino" unicode="&#xe6a1;" 
d="M303 728q2 -10 1 -20l-1 -36l29 -23l214 -170l30 -24l37 12q44 15 90 15q49 0 95 -16q26 -10 51 -24l-169 -170l-43 -43l-13 -13v0l-169 -170q-27 45 -36 96q-13 72 10 141l12 37l-24 30l-170 214l-23 29l-36 -1h-1.5h-2.5q-8 0 -16 1zM318 831q-14 0 -24 -10l-219 -219
q-11 -11 -9.5 -27t14.5 -24q48 -31 104 -31h6l170 -215q-28 -84 -11.5 -175.5t74.5 -163.5q11 -13 27 -13q14 0 24 10l206 207l223 -223q10 -10 23.5 -10t23 9.5t9.5 23t-10 23.5l-223 223l206 207q11 11 10 26t-13 25q-98 80 -226 80q-57 0 -112 -18l-215 170q2 60 -30 110
q-10 15 -28 15v0z" />
    <glyph glyph-name="pushpin" unicode="&#xe6a2;" 
d="M949 -7l-223 223l206 207q11 11 10 26t-13 25q-72 58 -163 74t-175 -12l-215 170q2 60 -30 110q-9 13 -25 14.5t-27 -9.5l-219 -219q-11 -11 -9.5 -27t14.5 -24q50 -33 110 -31l170 -215q-28 -84 -11.5 -175.5t74.5 -163.5q10 -12 25 -13t26 10l206 207l223 -223
q10 -10 23.5 -10t23 9.5t9.5 23t-10 23.5z" />
    <glyph glyph-name="heart" unicode="&#xe6a3;" horiz-adv-x="1025" 
d="M1000 648q-23 56 -66 99q-84 85 -201 85q-64 0 -121.5 -28t-99.5 -79q-42 51 -99.5 79t-121.5 28q-117 0 -201 -86q-43 -43 -66 -99q-25 -59 -24 -122q1 -69 29 -130.5t79 -104.5q5 -4 9 -8q14 -12 113 -102q208 -191 257 -235q11 -9 25 -9t25 9q33 30 181 165
q158 144 196 179q52 43 81 105t29 132q0 64 -24 122z" />
    <glyph glyph-name="hearto" unicode="&#xe6a4;" horiz-adv-x="1025" 
d="M1000 648q-23 56 -66 99q-84 85 -201 85q-64 0 -121.5 -28t-99.5 -79q-42 51 -99.5 79t-121.5 28q-117 0 -201 -86q-43 -43 -66 -99q-25 -59 -24 -122q1 -69 29 -130.5t79 -104.5q5 -4 9 -8q14 -12 113 -102q208 -191 257 -235q11 -9 25 -9t25 9q33 30 181 165
q158 144 196 179q52 43 81 105t29 132q0 64 -24 122zM568 672q30 40 73.5 61.5t91.5 21.5q85 0 147 -62q32 -32 49 -74q18 -44 18 -93q0 -53 -22 -101q-22 -46 -60 -77l-2 -2q-62 -55 -197 -180q-108 -98 -154 -140q-58 53 -202 184l-48 44q-76 69 -94 85q-1 2 -2 3
q-6 4 -8 7q-39 32 -60 78.5t-21 97.5q-1 49 18 93q17 42 49 74q62 63 147 63q48 0 91.5 -22t73.5 -61q21 -28 56 -28t56 28z" />
    <glyph glyph-name="smile-circle" unicode="&#xe6a7;" 
d="M512 896q-139 0 -257 -68.5t-186.5 -186.5t-68.5 -257t68.5 -257t186.5 -186.5t257 -68.5t257 68.5t186.5 186.5t68.5 257t-68.5 257t-186.5 186.5t-257 68.5zM254 454q-25 0 -42.5 17.5t-17.5 42t17.5 42.5t42.5 18t42.5 -18t17.5 -42.5t-17.5 -42t-42.5 -17.5zM512 130
q-68 0 -116 48.5t-48 116.5q0 15 10.5 25.5t25.5 10.5t25.5 -10.5t10.5 -25.5q0 -38 27 -65.5t65 -27.5t65 27.5t27 65.5q0 15 10.5 25.5t25.5 10.5t25.5 -10.5t10.5 -25.5q0 -68 -48 -116.5t-116 -48.5zM769.5 454q-24.5 0 -42 17.5t-17.5 42t17.5 42.5t42 18t42.5 -18
t18 -42.5t-18 -42t-42.5 -17.5z" />
    <glyph glyph-name="smileo" unicode="&#xe6a8;" 
d="M512 896q-139 0 -257 -68.5t-186.5 -186.5t-68.5 -257t68.5 -257t186.5 -186.5t257 -68.5t257 68.5t186.5 186.5t68.5 257t-68.5 257t-186.5 186.5t-257 68.5zM823 73q-61 -61 -140 -94q-81 -35 -171 -35t-171 34q-79 34 -140 95t-94 140q-35 81 -35 171t34 171
q34 79 95 140t140 94q81 35 171 35t171 -34q79 -34 140 -95t94 -140q35 -81 35 -171t-34 -171q-34 -79 -95 -140zM640 331q-15 0 -25.5 -10.5t-10.5 -25.5q0 -38 -27 -65.5t-65 -27.5t-65 27.5t-27 65.5q0 15 -10.5 25.5t-25.5 10.5t-25.5 -10.5t-10.5 -25.5
q0 -68 48 -116.5t116 -48.5t116 48.5t48 116.5q0 15 -10.5 25.5t-25.5 10.5zM254 514zM194 513.5q0 24.5 17.5 42.5t42.5 18t42.5 -18t17.5 -42.5t-17.5 -42t-42.5 -17.5t-42.5 17.5t-17.5 42zM770 514zM710 513.5q0 24.5 17.5 42.5t42 18t42.5 -18t18 -42.5t-18 -42
t-42.5 -17.5t-42 17.5t-17.5 42z" />
    <glyph glyph-name="frowno" unicode="&#xe6a9;" 
d="M512 896q-139 0 -257 -68.5t-186.5 -186.5t-68.5 -257t68.5 -257t186.5 -186.5t257 -68.5t257 68.5t186.5 186.5t68.5 257t-68.5 257t-186.5 186.5t-257 68.5zM823 73q-61 -61 -140 -94q-81 -35 -171 -35t-171 34q-79 34 -140 95t-94 140q-35 81 -35 171t34 171
q34 79 95 140t140 94q81 35 171 35t171 -34q79 -34 140 -95t94 -140q35 -81 35 -171t-34 -171q-34 -79 -95 -140zM640 130q-15 0 -25.5 11t-10.5 25q0 39 -27 66t-65 27t-65 -27t-27 -66q0 -14 -10.5 -25t-25.5 -11t-25.5 11t-10.5 25q0 68 48 116.5t116 48.5t116 -48.5
t48 -116.5q0 -14 -10.5 -25t-25.5 -11zM254 514zM194 513.5q0 24.5 17.5 42.5t42.5 18t42.5 -18t17.5 -42.5t-17.5 -42t-42.5 -17.5t-42.5 17.5t-17.5 42zM770 514zM710 513.5q0 24.5 17.5 42.5t42 18t42.5 -18t18 -42.5t-18 -42t-42.5 -17.5t-42 17.5t-17.5 42z" />
    <glyph glyph-name="calculator" unicode="&#xe6aa;" 
d="M857 832h-689q-16 0 -27.5 -11.5t-11.5 -27.5v-818q0 -16 11.5 -27.5t27.5 -11.5h689q16 0 27 11.5t11 27.5v818q0 16 -11 27.5t-27 11.5zM818 14h-612v740h612v-740v0zM324 410h377q16 0 27.5 11.5t11.5 27.5v185q0 16 -11.5 27.5t-27.5 11.5h-377q-16 0 -27.5 -11.5
t-11.5 -27.5v-185q0 -16 11.5 -27.5t27.5 -11.5zM362 595h300v-108h-300v108zM293 189h23v-23q0 -16 11.5 -27.5t27.5 -11.5t27.5 11.5t11.5 27.5v23h23q16 0 27.5 11.5t11.5 27.5t-11.5 27t-27.5 11h-23v24q0 16 -11.5 27t-27.5 11t-27.5 -11t-11.5 -27v-24h-23
q-16 0 -27.5 -11t-11.5 -27t11.5 -27.5t27.5 -11.5zM607 328q-16 0 -27.5 -11t-11.5 -27t11.5 -27.5t27.5 -11.5h124q16 0 27.5 11.5t11.5 27.5t-11.5 27t-27.5 11h-124zM731 162h-124q-16 0 -27.5 -11.5t-11.5 -27.5t11.5 -27.5t27.5 -11.5h124q16 0 27.5 11.5t11.5 27.5
t-11.5 27.5t-27.5 11.5z" />
    <glyph glyph-name="chrome" unicode="&#xe6ac;" horiz-adv-x="1025" 
d="M258 449l-146 254q71 90 176 141.5t224 51.5q138 0 255.5 -68t185.5 -183h-418q-11 1 -23 1q-90 0 -161 -55.5t-93 -141.5v0zM695 571h294q35 -90 35 -187q0 -103 -40 -197.5t-107.5 -163t-161.5 -109.5t-197 -42l209 363q47 67 47 149q0 110 -79 187v0v0zM326 384
q0 77 54.5 131.5t131.5 54.5t131.5 -54.5t54.5 -131.5t-54.5 -131.5t-131.5 -54.5t-131.5 54.5t-54.5 131.5zM582 131l-146 -253q-122 18 -222 89t-157 181t-57 236q0 135 66 251l209 -362q32 -68 96 -109.5t141 -41.5q36 0 70 9z" />
    <glyph glyph-name="github" unicode="&#xe6ad;" horiz-adv-x="1025" 
d="M0 371q0 -166 95.5 -298.5t247.5 -185.5q6 -1 10 -1t6.5 1.5t4 3t2 5t0.5 5v6v6.5v88q-37 -4 -66 0.5t-45.5 14t-29 23.5t-17 25.5t-9 24t-5.5 14.5q-9 15 -27 27.5t-27 20t-2 14.5q50 26 113 -66q34 -51 119 -30q10 41 40 70q-116 21 -172 86t-56 158q0 87 55 151
q-22 65 6 137q29 2 65 -11.5t50.5 -23t25.5 -17.5q57 16 128.5 16t129.5 -16q13 9 29 19t49 21.5t61 9.5q27 -71 7 -135q56 -64 56 -151q0 -93 -57 -158.5t-172 -85.5q43 -43 43 -104v-129q0 -1 1 -3q0 -6 0.5 -9t4.5 -6t12 -3q153 52 250.5 185.5t97.5 300.5
q0 104 -40.5 199t-109 163.5t-163.5 109t-199 40.5t-199 -40.5t-163.5 -109t-109 -163.5t-40.5 -199v0z" />
    <glyph glyph-name="iconfontdesktop" unicode="&#xe6b4;" 
d="M902 766h-779q-23 0 -40 -17t-17 -40v-480q0 -24 17 -40.5t40 -16.5h357v-108h-147q-13 0 -22.5 -9.5t-9.5 -22.5t9.5 -22t22.5 -9h358q13 0 22.5 9t9.5 22t-9.5 22.5t-22.5 9.5h-148v108h359q24 0 40.5 16.5t16.5 40.5v480q0 23 -16.5 40t-40.5 17zM896 703v-468h-767
v468h767z" />
    <glyph glyph-name="caretcircleoup" unicode="&#xe6b5;" 
d="M512 895q-104 0 -199 -40.5t-163.5 -109t-109 -163.5t-40.5 -199t40.5 -198.5t109 -163t163.5 -109t199 -40.5t198.5 40.5t163 109t109 163t40.5 198.5t-40.5 199t-109 163.5t-163 109t-198.5 40.5zM828 67q-62 -62 -142 -96q-83 -35 -174 -35t-174 35q-81 34 -143 96
t-96 142q-35 83 -35 174t35 175q34 80 96 142t142 96q83 35 174.5 35t174.5 -35q80 -34 142 -96t96 -142q35 -83 35 -174.5t-35 -174.5q-34 -80 -96 -142zM528 559q-7 7 -16 7h-1q-10 0 -16 -7l-229 -244q-10 -11 -4.5 -25t21.5 -14h457q16 0 22 14t-5 25z" />
    <glyph glyph-name="upload" unicode="&#xe6b6;" 
d="M488 822q10 10 24 10t24 -10l156 -156q10 -10 10 -24.5t-10 -24.5t-24 -10t-25 10l-96 97v-578q0 -14 -10.5 -24t-24.5 -10t-24.5 10t-10.5 24v578l-97 -97q-10 -10 -24 -10t-24 10t-10 24.5t10 24.5zM924.5 256q-14.5 0 -24.5 -10.5t-10 -24.5v-195q0 -9 -6 -15t-15 -6
h-716q-9 0 -15 6t-6 15v195q0 14 -10 24.5t-24.5 10.5t-24.5 -10.5t-10 -24.5v-223q0 -26 18 -44t44 -18h772q26 0 44 18.5t18 43.5v223q0 14 -10 24.5t-24.5 10.5z" />
    <glyph glyph-name="download" unicode="&#xe6b7;" 
d="M488 112q10 -10 24 -10t24 10l156 156q11 10 11 24t-10.5 24.5t-24.5 10.5t-24 -11l-97 -96v577q0 15 -10.5 25t-24.5 10t-24 -10t-10 -25v-577l-97 97q-11 10 -25 10t-24 -10.5t-10 -24.5t10 -24zM924.5 256q-14.5 0 -24.5 -10.5t-10 -24.5v-195q0 -9 -6 -15t-15 -6
h-716q-9 0 -15 6t-6 15v195q0 14 -10 24.5t-24.5 10.5t-24.5 -10.5t-10 -24.5v-223q0 -26 18 -44t44 -18h772q26 0 44 18.5t18 43.5v223q0 14 -10 24.5t-24.5 10.5z" />
    <glyph glyph-name="piechart" unicode="&#xe6b8;" 
d="M467 -128q95 0 180 36t150 101l-330 328v465q-95 0 -181.5 -36.5t-149 -99t-99.5 -148.5t-37 -180.5t37 -181t99.5 -148.5t149 -99t181.5 -37v0v0zM531 404h493q0 100 -39 191t-105 157t-157.5 105t-191.5 39v-492v0zM557 339l332 -327q64 64 99.5 148.5t35.5 178.5h-467
v0z" />
    <glyph glyph-name="lock1" unicode="&#xe6b9;" 
d="M824 614q-26 64 -73 113q-46 50 -107 77q-63 28 -132 28t-132 -28q-61 -27 -108 -76.5t-72 -113.5q-27 -66 -27 -139v-470q0 -29 19.5 -49t46.5 -20h545q28 0 47.5 20t18.5 49v415l1 19v36q0 72 -27 139zM407 741v0l1 1q49 22 104 22q54 0 104 -22q48 -22 86 -62
q38 -39 59 -92t21 -113v-29h-541v0v29q0 59 22 113q21 53 59 92.5t85 60.5zM783 378v-373q0 -1 -1 -1h-540q-1 0 -1 1v373h542zM480 224v-90q0 -13 9.5 -22t22.5 -9t22.5 9t9.5 22v90q27 17 27 49q0 25 -17.5 42t-41.5 17t-41.5 -17t-17.5 -42q0 -32 27 -49z" />
    <glyph glyph-name="unlock" unicode="&#xe6ba;" 
d="M241 446v30q0 58 22 113q21 52 59 91q38 40 85 61v0l1 1q49 22 104 22q54 0 104 -22q48 -22 86 -61q21 -23 53 -83q10 -20 31 -20h14q14 0 21.5 11.5t2.5 24.5v0q-26 64 -73 113q-46 50 -107 77q-63 28 -132 28t-132 -28q-61 -27 -108 -76.5t-72 -113.5q-27 -66 -27 -139
v-470q0 -29 19.5 -49t46.5 -20h545q28 0 47 20t19 49l1 377q0 26 -19 45t-45 19h-546v0zM783 5q0 -1 -1 -1h-540q-1 0 -1 1v373h542v-373zM480 224v-90q0 -13 9.5 -22t22.5 -9t22.5 9t9.5 22v90q27 17 27 49q0 25 -17.5 42t-41.5 17t-41.5 -17t-17.5 -42q0 -32 27 -49z" />
    <glyph glyph-name="windowso" unicode="&#xe6bc;" 
d="M527 27l434 -71v401h-434v-330zM599 285h290v-244l-290 47v197zM527 758v-329h434v401zM889 501h-290v196l290 48v-244zM68 429h367v317l-367 -61v-256zM140 624l223 37v-160h-223v123zM68 99l367 -60v318h-367v-258zM140 285h223v-161l-223 36v125z" />
    <glyph glyph-name="dotchart" unicode="&#xe6bd;" 
d="M923 8h-788v789q0 15 -10.5 25.5t-25.5 10.5t-25.5 -10.5t-10.5 -25.5v-825q0 -15 10.5 -25.5t25.5 -10.5h824q15 0 25.5 10.5t10.5 25.5t-10.5 25.5t-25.5 10.5zM319 259zM253 259.5q0 27.5 19 46.5t46.5 19t47 -19t19.5 -46.5t-19.5 -47t-47 -19.5t-46.5 19.5t-19 47z
M598 299zM512 299q0 35 25 60t60.5 25t60.5 -25t25 -60t-25 -60t-60.5 -25t-60.5 25t-25 60zM623 514zM563 514q0 25 17.5 42.5t42.5 17.5t42.5 -17.5t17.5 -42.5t-17.5 -42.5t-42.5 -17.5t-42.5 17.5t-17.5 42.5zM850 657zM805 657.5q0 18.5 13 32t32 13.5t32.5 -13.5
t13.5 -32t-13.5 -32t-32.5 -13.5t-32 13.5t-13 32zM863 466zM830 466q0 14 9.5 23.5t23.5 9.5t23.5 -9.5t9.5 -23.5t-9.5 -23.5t-23.5 -9.5t-23.5 9.5t-9.5 23.5z" />
    <glyph glyph-name="barchart" unicode="&#xe6be;" 
d="M923 -64h-824q-15 0 -25.5 10.5t-10.5 25.5v824q0 15 10.5 25.5t25.5 10.5t25.5 -10.5t10.5 -25.5v-788h788q15 0 25.5 -10.5t10.5 -25.5t-10.5 -25.5t-25.5 -10.5zM264 523q-29 -1 -50 -22t-22 -50q0 -23 11.5 -41t30.5 -28v-285q0 -13 9.5 -22.5t22.5 -9.5v0
q13 0 22.5 9.5t9.5 22.5v285q19 9 30.5 27t11.5 40q0 31 -22.5 53t-53.5 21zM542 641q-30 -1 -51 -22t-21 -50q-1 -23 10.5 -41t31.5 -28v-403q0 -13 9 -22.5t23 -9.5v0q13 0 22.5 9.5t9.5 22.5v403q18 9 30 27t12 40q0 31 -22.5 53t-53.5 21zM895 438q0 31 -22.5 53
t-53.5 21q-29 -1 -50 -22t-22 -50q0 -23 11.5 -41t30.5 -28v-274q0 -13 9.5 -22.5t22.5 -9.5v0q13 0 22.5 9.5t9.5 22.5v274q19 9 30.5 27t11.5 40z" />
    <glyph glyph-name="codesquare" unicode="&#xe6bf;" 
d="M888 832h-752q-30 0 -51 -21t-21 -51v-753q0 -29 21 -50.5t51 -21.5h753q29 0 50.5 21.5t21.5 50.5v753q0 30 -21.5 51t-51.5 21zM229 347q-15 0 -25.5 10.5t-10.5 25.5t10 26l115 115l-115 117q-10 11 -10 25.5t10.5 25t25.5 10.5t25 -10l141 -142q10 -11 10 -26
t-11 -25l-140 -141q-10 -11 -25 -11zM618 347v0l-199 1q-15 0 -25.5 10.5t-10.5 25.5t10.5 25.5t25.5 10.5v0l199 -1q15 0 25.5 -10.5t10.5 -25.5t-11 -25.5t-25 -10.5z" />
    <glyph glyph-name="plussquare" unicode="&#xe6c0;" 
d="M888 832h-752q-30 0 -51 -21t-21 -51v-753q0 -29 21 -50.5t51 -21.5h753q29 0 50.5 21.5t21.5 50.5v753q0 30 -21.5 51t-51.5 21zM732 348h-184v-183q0 -15 -10.5 -25.5t-25 -10.5t-25.5 10.5t-11 25.5v183h-184q-15 0 -25.5 10.5t-10.5 25t10.5 25.5t25.5 11h184v183
q0 15 11 25.5t25.5 10.5t25 -10.5t10.5 -25.5v-183h184q15 0 25.5 -11t10.5 -25.5t-10.5 -25t-25.5 -10.5z" />
    <glyph glyph-name="minussquare" unicode="&#xe6c1;" 
d="M888 832h-752q-30 0 -51 -21t-21 -51v-753q0 -29 21 -50.5t51 -21.5h753q29 0 50.5 21.5t21.5 50.5v753q0 30 -21.5 51t-51.5 21zM768 383q0 -15 -11 -25.5t-25 -10.5h-442q-14 0 -25 10.5t-11 25.5v0q0 15 11 25.5t25 10.5h442q14 0 25 -10.5t11 -25.5v0z" />
    <glyph glyph-name="closesquare" unicode="&#xe6c2;" 
d="M888 832h-752q-30 0 -51 -21t-21 -51v-753q0 -29 21 -50.5t51 -21.5h753q29 0 50.5 21.5t21.5 50.5v753q0 30 -21.5 51t-51.5 21zM717.5 178.5q-10.5 -10.5 -25.5 -10.5t-26 10l-154 155l-154 -155q-11 -10 -26 -10t-25.5 10.5t-10.5 25.5t11 25l154 155l-154 155
q-11 10 -11 25t10.5 25.5t25.5 10.5t26 -10l154 -155l154 155q11 10 26 10t25.5 -10.5t10.5 -25.5t-11 -25l-154 -155l154 -155q11 -11 11 -25.5t-10.5 -25z" />
    <glyph glyph-name="closesquareo" unicode="&#xe6c3;" 
d="M717.5 589.5q-10.5 10.5 -25.5 10.5t-26 -10l-154 -155l-154 155q-11 10 -26 10t-25.5 -10.5t-10.5 -25.5t11 -25l154 -155l-154 -155q-11 -10 -11 -25t10.5 -25.5t25.5 -10.5t26 10l154 155l154 -155q11 -10 26 -10t25.5 10.5t10.5 25t-11 25.5l-154 155l154 155
q11 10 11 25t-10.5 25.5zM888 760v0v0v-753v0h-752v0v753v0h752zM888 832h-752q-30 0 -51 -21t-21 -51v-753q0 -29 21 -50.5t51 -21.5h753q29 0 50.5 21.5t21.5 50.5v753q0 30 -21.5 51t-51.5 21v0z" />
    <glyph glyph-name="checksquare" unicode="&#xe6c4;" 
d="M888 832h-752q-30 0 -51 -21t-21 -51v-753q0 -29 21 -50.5t51 -21.5h753q29 0 50.5 21.5t21.5 50.5v753q0 30 -21.5 51t-51.5 21zM772 539l-359 -360l-1 -1q-3 -3 -8 -6q-8 -5 -18 -5q-21 0 -31 18l-109 191q-8 13 -4 27t17 21.5t27.5 3.5t21.5 -17l86 -149l327 328
q11 11 26 11t25.5 -10.5t10.5 -25.5t-11 -26z" />
    <glyph glyph-name="checksquareo" unicode="&#xe6c5;" 
d="M721 590l-327 -328l-86 149q-7 13 -21.5 17t-27.5 -3.5t-17 -21.5t4 -27l109 -191q10 -18 31 -18q10 0 18 5q5 3 8 6l1 1l359 360q11 11 11 26t-10.5 25.5t-25.5 10.5t-26 -11zM888 760v0v0v-753v0h-752v0v753v0h752zM888 832h-752q-30 0 -51 -21t-21 -51v-753
q0 -29 21 -50.5t51 -21.5h753q29 0 50.5 21.5t21.5 50.5v753q0 30 -21.5 51t-51.5 21v0z" />
    <glyph glyph-name="fastbackward" unicode="&#xe6c6;" 
d="M525 414l436 376q18 17 40.5 6.5t22.5 -36.5v-752q0 -26 -22.5 -36.5t-40.5 6.5l-436 377q-13 12 -13 30t13 29zM36 800v0q15 0 25.5 -10.5t10.5 -25.5v-298l377 324q18 17 40.5 6.5t22.5 -36.5v-375v-377q0 -26 -22.5 -36.5t-40.5 6.5l-377 326v-300q0 -15 -10.5 -25.5
t-25.5 -10.5v0q-15 0 -25.5 10.5t-10.5 25.5v760q0 15 10.5 25.5t25.5 10.5z" />
    <glyph glyph-name="fastforward" unicode="&#xe6c7;" 
d="M499 414l-436 376q-18 17 -40.5 6.5t-22.5 -36.5v-752q0 -26 22.5 -36.5t40.5 6.5l436 378q13 11 13 29t-13 29zM988 800v0q-15 0 -25.5 -10.5t-10.5 -25.5v-298l-377 324q-18 17 -40.5 6.5t-22.5 -36.5v-375v-377q0 -26 22.5 -36.5t40.5 6.5l377 326v-300
q0 -15 10.5 -25.5t25.5 -10.5v0q15 0 25.5 10.5t10.5 25.5v760q0 15 -10.5 25.5t-25.5 10.5z" />
    <glyph glyph-name="upsquare" unicode="&#xe6c8;" 
d="M888 832h-752q-30 0 -51 -21t-21 -51v-753q0 -29 21 -50.5t51 -21.5h753q29 0 50.5 21.5t21.5 50.5v753q0 30 -21.5 51t-51.5 21zM757.5 277q-10.5 -10 -25.5 -9.5t-25 10.5l-195 208l-195 -208q-10 -10 -25 -10.5t-26 9.5t-11.5 25t10.5 26l221 236q10 11 26 11t26 -11
l221 -236q10 -11 9.5 -26t-11 -25z" />
    <glyph glyph-name="downsquare" unicode="&#xe6c9;" 
d="M888 832h-752q-30 0 -51 -21t-21 -51v-753q0 -29 21 -50.5t51 -21.5h753q29 0 50.5 21.5t21.5 50.5v753q0 30 -21.5 51t-51.5 21zM759 451l-221 -236q-10 -11 -26 -11t-26 11l-221 236q-11 11 -10.5 26t11.5 25t26 9.5t25 -11.5l195 -207l195 207q10 11 25 11.5
t25.5 -9.5t11 -25t-9.5 -26z" />
    <glyph glyph-name="leftsquare" unicode="&#xe6ca;" 
d="M888 832h-752q-30 0 -51 -21t-21 -51v-753q0 -29 21 -50.5t51 -21.5h753q29 0 50.5 21.5t21.5 50.5v753q0 30 -21.5 51t-51.5 21zM616 189q11 -10 11.5 -25t-9.5 -25.5t-25 -11t-26 9.5l-236 221q-11 10 -11 26t11 26l236 221q11 11 26 10.5t25 -11.5t9.5 -26t-10.5 -25
l-208 -195z" />
    <glyph glyph-name="rightsquare" unicode="&#xe6cb;" 
d="M888 832h-752q-30 0 -51 -21t-21 -51v-753q0 -29 21 -50.5t51 -21.5h753q29 0 50.5 21.5t21.5 50.5v753q0 30 -21.5 51t-51.5 21zM694 358l-236 -221q-11 -10 -26 -9.5t-25 11t-9.5 25.5t10.5 25l208 195l-208 195q-10 10 -10.5 25t9.5 26t25 11.5t26 -10.5l236 -221
q11 -10 11 -26t-11 -26z" />
    <glyph glyph-name="rightsquareo" unicode="&#xe6cc;" 
d="M888 760v0v0v-753v0h-752v0v753v0h752zM888 832h-752q-30 0 -51 -21t-21 -51v-753q0 -29 21 -50.5t51 -21.5h753q29 0 50.5 21.5t21.5 50.5v753q0 30 -21.5 51t-51.5 21v0zM705 384q0 16 -11 26l-236 221q-11 11 -26 10.5t-25 -11.5t-9.5 -26t10.5 -25l208 -195
l-208 -195q-10 -10 -10.5 -25t9.5 -26t25 -11.5t26 10.5l236 221q11 10 11 26z" />
    <glyph glyph-name="leftsquareo" unicode="&#xe6cd;" 
d="M888 760v0v0v-753v0h-752v0v753v0h752zM888 832h-752q-30 0 -51 -21t-21 -51v-753q0 -29 21 -50.5t51 -21.5h753q29 0 50.5 21.5t21.5 50.5v753q0 30 -21.5 51t-51.5 21v0zM331 358l236 -221q11 -10 26 -9.5t25 11t9.5 25.5t-11.5 25l-207 195l207 195q11 10 11.5 25
t-9.5 26t-25 11.5t-26 -10.5l-236 -221q-11 -10 -11 -26t11 -26z" />
    <glyph glyph-name="down-square-o" unicode="&#xe6ce;" 
d="M888 760v0v0v-753h-752v753h752zM888 832h-752q-30 0 -51 -21t-21 -51v-753q0 -29 21 -50.5t51 -21.5h753q29 0 50.5 21.5t21.5 50.5v753q0 30 -21.5 51t-51.5 21v0zM538 215l221 236q10 11 9.5 26t-11 25t-25.5 9.5t-25 -11.5l-195 -207l-195 207q-10 11 -25 11.5
t-26 -9.5t-11.5 -25t10.5 -26l221 -236q10 -11 26 -11t26 11z" />
    <glyph glyph-name="up-square-o" unicode="&#xe6cf;" 
d="M888 760v0v0v-753v0h-752v0v753v0h752zM888 832h-752q-30 0 -51 -21t-21 -51v-753q0 -29 21 -50.5t51 -21.5h753q29 0 50.5 21.5t21.5 50.5v753q0 30 -21.5 51t-51.5 21v0zM512 575q-16 0 -26 -11l-221 -236q-11 -11 -10.5 -26t11.5 -25t26 -9.5t25 10.5l195 208
l195 -208q10 -10 25 -10.5t25.5 9.5t11 25t-9.5 26l-221 236q-10 11 -26 11z" />
    <glyph glyph-name="play" unicode="&#xe6d0;" 
d="M512 894q-139 0 -256.5 -68.5t-186 -186t-68.5 -256.5t68.5 -256.5t186 -186t256.5 -68.5t256.5 68.5t186 186t68.5 256.5t-68.5 256.5t-186 186t-256.5 68.5zM712 369l-291 -247q-6 -6 -15 -6q-8 0 -14.5 5.5t-6.5 14.5v495q0 8 6.5 13.5t15 5.5t14.5 -6l291 -247
q6 -6 6 -14t-6 -14z" />
    <glyph glyph-name="playcircleo" unicode="&#xe6d1;" 
d="M512 894q-139 0 -256.5 -68.5t-186 -186t-68.5 -256.5t68.5 -256.5t186 -186t256.5 -68.5t256.5 68.5t186 186t68.5 256.5t-68.5 256.5t-186 186t-256.5 68.5zM822 73q-60 -61 -139 -95q-82 -34 -171 -34t-171 34q-78 34 -139 95q-61 60 -95 139q-34 82 -34 171t35 171
q33 78 94 140q60 60 139 94q82 34 171 34t171 -34q78 -34 139 -95q61 -60 95 -139q34 -82 34 -171t-35 -171q-33 -79 -94 -139zM712 397l-291 247q-6 6 -15 6q-8 0 -14.5 -5.5t-6.5 -13.5v-495q0 -9 6.5 -14t15 -5t14.5 5l291 247q6 6 6 14t-6 14z" />
    <glyph glyph-name="tag" unicode="&#xe6d2;" 
d="M963 291v3q-1 9 -4 18q-4 10 -10 19q-4 5 -7 8l-479 483q-4 5 -9 8q-12 7 -25 7h-291q-31 0 -53 -22t-22 -52v-298q0 -5 1 -10l0.5 -1l0.5 -1q1 -4 2 -7q1 -1 1 -2q4 -7 10 -13l477 -472q9 -8 18 -13q17 -9 35 -9q15 0 28 6q14 5 25 16l280 277q3 2 5 5q3 3 5 7q2 3 3 5
q2 3 3 5q0 2 1 3q5 14 5 30zM264.5 560q-29.5 0 -50.5 21t-21 50.5t21 50.5t50.5 21t50.5 -21t21 -50.5t-21 -50.5t-50.5 -21z" />
    <glyph glyph-name="tago" unicode="&#xe6d3;" 
d="M963 291v3q-1 9 -4 18q-4 10 -10 19q-4 5 -7 8l-479 483q-4 5 -9 8q-12 7 -25 7h-291q-31 0 -52.5 -22t-21.5 -52v-298v-10l0.5 -1l0.5 -1q1 -4 2 -7q1 -1 1 -2q4 -7 10 -13l238 -236l239 -236q9 -8 19 -13q16 -9 34 -9q15 0 28 6q14 5 25 16l280 277q3 2 5 5q3 3 5 7
q2 3 3 5q2 3 3 5q0 2 1 3q5 14 5 30zM891 287v0v0v0v0v0h-1v0l-280 -277v0q-1 -1 -2 -1t-1 1h-0.5h-0.5l-239 236l-231 229v288q0 2 2 2h281l471 -476h1v-1v0v0v-1zM264 632zM193 631.5q0 29.5 21 50.5t50.5 21t50.5 -21t21 -50.5t-21 -50.5t-50.5 -21t-50.5 21t-21 50.5z
" />
    <glyph glyph-name="addfile" unicode="&#xe910;" 
d="M860 128h-156v156q0 15 -10.5 25.5t-25.5 10.5t-25.5 -10.5t-10.5 -25.5v-156h-148q-15 0 -25.5 -10.5t-10.5 -25.5t10.5 -25.5t25.5 -10.5h148v-148q0 -15 10.5 -25.5t25.5 -10.5t25.5 10.5t10.5 25.5v148h156q15 0 25.5 10.5t10.5 25.5t-10.5 25.5t-25.5 10.5zM875 594
l-278 281q-6 6 -15 11q-2 2 -4 2q-1 1 -3 2q-14 6 -29 6h-346q-30 0 -51 -21t-21 -51v-880q0 -30 21 -51t51 -21h212q15 0 25.5 10.5t10.5 25.5t-10.5 25.5t-25.5 10.5h-212v880h312v-240q0 -30 21 -51t51 -21h240v-156q0 -15 10.5 -25.5t25.5 -10.5t25.5 10.5t10.5 25.5
v188q0 29 -21 50zM584 584v202l200 -202h-200z" />
    <glyph glyph-name="folder1" unicode="&#xe662;" 
d="M952 704h-463l-25 78q-7 22 -26 36t-43 14h-323q-30 0 -51 -21t-21 -51v-688q0 -30 21 -51t51 -21h880q30 0 51 21t21 51v560q0 30 -21 51t-51 21zM72 760h323l18 -56h-341v56zM952 72h-880v560h880v-560z" />
    <glyph glyph-name="file1" unicode="&#xe664;" 
d="M875 594l-278 281q-6 6 -15 11q-2 2 -4 2q-1 1 -3 2q-14 6 -29 6h-346q-30 0 -51 -21t-21 -51v-880q0 -30 21 -51t51 -21h624q30 0 51 21t21 51v600q0 29 -21 50zM784 584h-200v202zM824 -56h-624v880h312v-240q0 -30 21 -51t51 -21h240v-568z" />
    <glyph glyph-name="switcher" unicode="&#xe913;" 
d="M572 292h-376q-15 0 -25.5 -10.5t-10.5 -25.5t10.5 -25.5t25.5 -10.5h376q15 0 25.5 10.5t10.5 25.5t-10.5 25.5t-25.5 10.5zM696 568v-624h-624v624h624zM696 640h-624q-30 0 -51 -21t-21 -51v-624q0 -30 21 -51t51 -21h624q30 0 51 21t21 51v624q0 30 -21 51t-51 21z
M952 896h-592q-15 0 -25.5 -10.5t-10.5 -25.5t10.5 -25.5t25.5 -10.5h592v-596q0 -15 10.5 -25.5t25.5 -10.5t25.5 10.5t10.5 25.5v596q0 30 -21 51t-51 21zM824 768h-660q-15 0 -25.5 -10.5t-10.5 -25.5t10.5 -25.5t25.5 -10.5h660v-660q0 -15 10.5 -25.5t25.5 -10.5
t25.5 10.5t10.5 25.5v660q0 30 -21 51t-51 21z" />
    <glyph glyph-name="addfolder" unicode="&#xe914;" 
d="M988 256h-156v156q0 15 -10.5 25.5t-25.5 10.5t-25.5 -10.5t-10.5 -25.5v-156h-148q-15 0 -25.5 -10.5t-10.5 -25.5t10.5 -25.5t25.5 -10.5h148v-148q0 -15 10.5 -25.5t25.5 -10.5t25.5 10.5t10.5 25.5v148h156q15 0 25.5 10.5t10.5 25.5t-10.5 25.5t-25.5 10.5zM952 704
h-463l-25 78q-7 22 -26 36t-43 14h-323q-30 0 -51 -21t-21 -51v-688q0 -30 21 -51t51 -21h468q15 0 25.5 10.5t10.5 25.5t-10.5 25.5t-25.5 10.5h-468v560h880v-148q0 -15 10.5 -25.5t25.5 -10.5t25.5 10.5t10.5 25.5v148q0 30 -21 51t-51 21zM72 704v56h323l18 -56h-341z
" />
    <glyph glyph-name="folderopen" unicode="&#xe699;" 
d="M960 512v120q0 30 -21 51t-51 21h-399l-25 78q-7 22 -26 36t-43 14h-323q-30 0 -51 -21t-21 -51v-688q0 -5 1 -11v0v-2v-1l0.5 -0.5l0.5 -0.5v-1v-1.5t0.5 -1l0.5 -0.5v-1q0 -2 1 -3v0q5 -17 18 -29v0q1 0 1.5 -0.5l1 -1t0.5 -1.5q1 0 1 -0.5t0.5 -0.5t1 -0.5t1.5 -0.5
v-0.5v-0.5q1 0 1.5 -0.5l1.5 -1.5v0q15 -10 32 -11l1 -1h3h1h1h2h788q25 0 44.5 15.5t25.5 39.5l92 368q8 31 -11 58t-51 31zM72 760h323l41 -128h452v-120h-724q-25 0 -44.5 -15t-25.5 -39l-22 -89v391zM860 72h-788l92 368h788z" />
    <glyph glyph-name="search1" unicode="&#xe670;" 
d="M950 -2l-206 205q88 107 88 245q0 159 -112.5 271.5t-271.5 112.5t-271.5 -112.5t-112.5 -271.5t112.5 -271.5t271.5 -112.5q138 0 245 88l206 -206q10 -10 25 -10t26 10q10 11 10 26t-10 26zM569 160q-57 -24 -121 -24t-121 24q-56 24 -99.5 67.5t-66.5 99.5
q-25 57 -25 121t25 121q23 56 66.5 99.5t99.5 67.5q57 24 121 24t121 -24q56 -24 99.5 -67.5t67.5 -99.5q24 -57 24 -121t-24 -121q-24 -56 -67.5 -99.5t-99.5 -67.5z" />
    <glyph glyph-name="ellipsis1" unicode="&#xe647;" 
d="M128 384q0 -27 18.5 -45.5t45.5 -18.5t45.5 18.5t18.5 45.5t-18.5 45.5t-45.5 18.5t-45.5 -18.5t-18.5 -45.5zM448 384q0 -27 18.5 -45.5t45.5 -18.5t45.5 18.5t18.5 45.5t-18.5 45.5t-45.5 18.5t-45.5 -18.5t-18.5 -45.5zM768 384q0 -27 18.5 -45.5t45.5 -18.5
t45.5 18.5t18.5 45.5t-18.5 45.5t-45.5 18.5t-45.5 -18.5t-18.5 -45.5z" />
    <glyph glyph-name="calendar" unicode="&#xe6bb;" 
d="M888 768h-120v28q0 15 -10.5 25.5t-25.5 10.5t-25.5 -10.5t-10.5 -25.5v-28h-368v28q0 15 -10.5 25.5t-25.5 10.5t-25.5 -10.5t-10.5 -25.5v-28h-120q-30 0 -51 -21t-21 -51v-688q0 -30 21 -51t51 -21h752q30 0 51 21t21 51v688q0 30 -21 51t-51 21zM136 696h120v-20
q0 -15 10.5 -25.5t25.5 -10.5t25.5 10.5t10.5 25.5v20h368v-20q0 -15 10.5 -25.5t25.5 -10.5t25.5 10.5t10.5 25.5v20h120v-112h-752v112zM888 8h-752v504h752v-504zM288 384h64q13 0 22.5 -9.5t9.5 -22.5t-9.5 -22.5t-22.5 -9.5h-64q-13 0 -22.5 9.5t-9.5 22.5t9.5 22.5
t22.5 9.5zM480 384h64q13 0 22.5 -9.5t9.5 -22.5t-9.5 -22.5t-22.5 -9.5h-64q-13 0 -22.5 9.5t-9.5 22.5t9.5 22.5t22.5 9.5zM672 384h64q13 0 22.5 -9.5t9.5 -22.5t-9.5 -22.5t-22.5 -9.5h-64q-13 0 -22.5 9.5t-9.5 22.5t9.5 22.5t22.5 9.5zM288 190h64q13 0 22.5 -9.5
t9.5 -22.5t-9.5 -22.5t-22.5 -9.5h-64q-13 0 -22.5 9.5t-9.5 22.5t9.5 22.5t22.5 9.5zM480 190h64q13 0 22.5 -9.5t9.5 -22.5t-9.5 -22.5t-22.5 -9.5h-64q-13 0 -22.5 9.5t-9.5 22.5t9.5 22.5t22.5 9.5z" />
    <glyph glyph-name="filetext1" unicode="&#xe698;" 
d="M875 594l-278 281q-7 6 -15 11q-3 2 -4 2q-1 1 -3 2q-14 6 -29 6h-345q-30 0 -51.5 -21t-21.5 -51v-880q0 -30 21.5 -51t51.5 -21h623q30 0 50.5 21t20.5 51v600q0 30 -20 50zM583 786l201 -202h-201v202zM823 -56h-623v880h311v-240q0 -30 21.5 -51t51.5 -21h239v-568z
M584 412q0 15 -10.5 25.5t-25.5 10.5h-256q-15 0 -25.5 -10.5t-10.5 -25.5t10.5 -25.5t25.5 -10.5h256q15 0 25.5 10.5t10.5 25.5zM776 252q0 15 -10.5 25.5t-25.5 10.5h-448q-15 0 -25.5 -10.5t-10.5 -25.5t10.5 -25.5t25.5 -10.5h448q15 0 25.5 10.5t10.5 25.5zM648 92
q0 15 -10.5 25.5t-25.5 10.5h-320q-15 0 -25.5 -10.5t-10.5 -25.5t10.5 -25.5t25.5 -10.5h320q15 0 25.5 10.5t10.5 25.5z" />
    <glyph glyph-name="copy1" unicode="&#xe648;" 
d="M875 658l-214 217q-7 6 -15 11q-3 2 -4 2q-1 1 -3 2q-14 6 -29 6h-281q-30 0 -51.5 -21t-21.5 -51v-56h-56q-29 0 -50.5 -21.5t-21.5 -50.5v-752q0 -30 21.5 -51t50.5 -21h496q29 0 50 21t21 51v56h57q30 0 50.5 21t20.5 51v536q0 30 -20 50zM647 786l137 -138h-137v138z
M695 -56h-495v752h56v-624q0 -30 21.5 -51t51.5 -21h366v-56zM823 72h-495v752h247v-176q0 -30 21.5 -51t51.5 -21h175v-504zM640 476q0 15 -10.5 25.5t-25.5 10.5h-184q-15 0 -25.5 -10.5t-10.5 -25.5t10.5 -25.5t25.5 -10.5h184q15 0 25.5 10.5t10.5 25.5zM768 348
q0 15 -10.5 25.5t-25.5 10.5h-312q-15 0 -25.5 -10.5t-10.5 -25.5t10.5 -25.5t25.5 -10.5h312q15 0 25.5 10.5t10.5 25.5zM704 220q0 15 -10.5 25.5t-25.5 10.5h-248q-15 0 -25.5 -10.5t-10.5 -25.5t10.5 -25.5t25.5 -10.5h248q15 0 25.5 10.5t10.5 25.5z" />
    <glyph glyph-name="jpgfile1" unicode="&#xe69c;" 
d="M875 594l-278 281q-7 6 -15 11q-3 2 -4 2q-1 1 -3 2q-14 6 -29 6h-345q-30 0 -51.5 -21t-21.5 -51v-880q0 -30 21.5 -51t51.5 -21h623q30 0 50.5 21t20.5 51v600q0 30 -20 50zM583 786l201 -202h-201v202zM823 -56h-623v880h311v-240q0 -30 21.5 -51t51.5 -21h239v-568z
M350 200q0 -18 -5.5 -25t-16.5 -7q-15 0 -25 19l-30 -23q20 -34 61 -34q30 0 45.5 18.5t15.5 47.5v123h-45v-119zM501 319h-64v-186h44v62h22q31 0 52 16t21 48q0 60 -75 60zM500 230h-19v53h18q34 0 34 -25q0 -28 -33 -28zM683 239v-36h30v-30q-6 -5 -18 -5q-50 0 -50 58
q0 27 13 42.5t34 15.5q18 0 34 -15l23 29q-24 24 -59 24q-39 0 -65 -26t-26 -71q0 -46 25.5 -70.5t66.5 -24.5q39 0 61 22v87h-69z" />
    <glyph glyph-name="pdffile1" unicode="&#xe6b3;" 
d="M875 594l-278 281q-7 6 -15 11q-3 2 -4 2q-1 1 -3 2q-14 6 -29 6h-345q-30 0 -51.5 -21t-21.5 -51v-880q0 -30 21.5 -51t51.5 -21h623q30 0 50.5 21t20.5 51v600q0 30 -20 50zM583 786l201 -202h-201v202zM823 -56h-623v880h311v-240q0 -30 21.5 -51t51.5 -21h239v-568z
M333 320h-67v-192h46v64h22q33 0 54.5 16.5t21.5 49.5q0 62 -77 62zM332 228h-20v56h18q35 0 35 -26q0 -30 -33 -30zM498 320h-56v-192h58q44 0 69 24.5t25 72.5t-25.5 71.5t-70.5 23.5zM495 165h-6v118h6q25 0 38.5 -13t13.5 -45q0 -60 -52 -60zM752 282v38h-122v-192h46
v73h65v38h-65v43h76z" />
    <glyph glyph-name="exclefile1" unicode="&#xe6b0;" 
d="M875 594l-278 281q-7 6 -15 11q-3 2 -4 2q-1 1 -3 2q-14 6 -29 6h-345q-30 0 -51.5 -21t-21.5 -51v-880q0 -30 21.5 -51t51.5 -21h623q30 0 50.5 21t20.5 51v600q0 30 -20 50zM583 786l201 -202h-201v202zM823 -56h-623v880h311v-240q0 -30 21.5 -51t51.5 -21h239v-568z
M460 229l-56 155h86l16 -57q5 -18 14 -53h2q15 29 30 53l33 57h82l-111 -159l60 -162h-86l-19 63q-4 14 -14 54h-2q-14 -25 -31 -54l-39 -63h-82z" />
    <glyph glyph-name="pptfile1" unicode="&#xe6b1;" 
d="M875 594l-278 281q-7 6 -15 11q-3 2 -4 2q-1 1 -3 2q-14 6 -29 6h-345q-30 0 -51.5 -21t-21.5 -51v-880q0 -30 21.5 -51t51.5 -21h623q30 0 50.5 21t20.5 51v600q0 30 -20 50zM583 786l201 -202h-201v202zM823 -56h-623v880h311v-240q0 -30 21.5 -51t51.5 -21h239v-568z
M538 390h-112l-57 -334h77l19 119h37q55 0 96 28t51 82q10 56 -21 80.5t-90 24.5zM574 285q-9 -49 -65 -49h-33l16 93h32q29 0 41.5 -10t8.5 -34z" />
    <glyph glyph-name="unknowfile1" unicode="&#xe6af;" 
d="M875 594l-278 281q-7 6 -15 11q-3 2 -4 2q-1 1 -3 2q-14 6 -29 6h-345q-30 0 -51.5 -21t-21.5 -51v-880q0 -30 21.5 -51t51.5 -21h623q30 0 50.5 21t20.5 51v600q0 30 -20 50zM583 786l201 -202h-201v202zM823 -56h-623v880h311v-240q0 -30 21.5 -51t51.5 -21h239v-568z
M510 329q0 18 -11 28t-29 10q-28 0 -58 -29l-55 51q52 59 125 59q56 0 90.5 -28t34.5 -84q0 -21 -10 -40.5t-24 -34t-27.5 -29t-22 -33t-5.5 -39.5h-88q-5 30 6.5 57t28.5 43.5t31 35.5t14 33zM432 62q0 19 12 31t29.5 12t29.5 -12.5t12 -30.5t-12 -30.5t-29.5 -12.5
t-29.5 12.5t-12 30.5z" />
    <glyph glyph-name="wordfile1" unicode="&#xe6b2;" 
d="M875 594l-278 281q-7 6 -15 11q-3 2 -4 2q-1 1 -3 2q-14 6 -29 6h-345q-30 0 -51.5 -21t-21.5 -51v-880q0 -30 21.5 -51t51.5 -21h623q30 0 50.5 21t20.5 51v600q0 30 -20 50zM583 786l201 -202h-201v202zM823 -56h-623v880h311v-240q0 -30 21.5 -51t51.5 -21h239v-568z
M559 142q-1 14 -1 46v48l-7 136h-60l-55 -136q-21 -57 -34 -94h-2l5 94l5 136h-73l2 -298h88l49 130q3 8 24 70h2q-2 -35 -1 -70l4 -130h90l104 298h-68l-43 -136q-3 -11 -12.5 -43t-15.5 -51h-1z" />
    <glyph glyph-name="dingding" unicode="&#xe923;" 
d="M913 513q-3 -11 -12 -31v0l-1 -2q-16 -34 -48.5 -90.5t-56.5 -96.5l-24 -40q0 1 -1 1l-27 -47h131l-251 -335l57 228h-103l36 150q-46 -11 -104 -30q-3 -1 -7 -2.5t-19 -2t-32 4t-44.5 20.5t-56.5 42l-5 5l-11.5 11.5t-13.5 17t-9.5 17.5t-2 16t12.5 11q14 5 136 22
l114 14q-218 -3 -270 5q-38 6 -79 59.5t-52 110.5l-3 15q2 21 49 7q31 -8 118 -27.5t160 -34.5l72 -14q-5 1 -13 3.5t-33 10.5l-50 16t-58.5 19t-63 21t-60.5 21t-53.5 20t-39 16.5t-20.5 11.5q-21 24 -45 99t-20 126q0 2 1 5t6.5 7t14.5 2q271 -124 456 -192
q30 -11 76 -26.5t73.5 -25t62 -23t53.5 -25t36.5 -25.5t22.5 -30t1 -35z" />
    <glyph glyph-name="dingding-o" unicode="&#xe925;" 
d="M512 896q-139 0 -257 -68.5t-186.5 -186.5t-68.5 -257t68.5 -257t186.5 -186.5t257 -68.5t257 68.5t186.5 186.5t68.5 257t-68.5 257t-186.5 186.5t-257 68.5zM749 415q-1 -6 -7 -19v0v0q-6 -13 -16.5 -32t-20.5 -36.5t-19.5 -33t-15.5 -25.5l-6 -10v1l-17 -28h79
l-151 -201l35 136h-62l21 90q-28 -6 -63 -17q-3 -3 -10.5 -4.5t-32 7.5t-52.5 34l-3 3l-7 7t-8 9.5t-5.5 10t-1 10t7.5 6.5q8 3 81 13l69 9q-131 -2 -162 3q-23 4 -47.5 36t-31.5 66l-2 10q3 11 30 3q18 -5 70.5 -16.5t96 -20.5l43.5 -9q-220 68 -235 84q-12 15 -26.5 59.5
t-12.5 75.5q0 1 0.5 3t4 4.5t8.5 0.5q163 -74 274 -115q19 -7 46.5 -16t43.5 -15t37 -14t32.5 -15t21.5 -15.5t13.5 -18t0.5 -20.5z" />
    <glyph glyph-name="mobile1" unicode="&#xe678;" 
d="M760 896h-496q-30 0 -51 -21t-21 -51v-880q0 -30 21 -51t51 -21h496q30 0 51 21t21 51v880q0 30 -21 51t-51 21zM542 -64h-60q-15 0 -24.5 9.5t-9.5 22.5t9.5 22.5t24.5 9.5h60q15 0 24.5 -9.5t9.5 -22.5t-9.5 -22.5t-24.5 -9.5zM760 65h-496v704h496v-704z" />
    <glyph glyph-name="tablet1" unicode="&#xe66e;" 
d="M824 896h-624q-30 0 -51 -21t-21 -51v-880q0 -30 21 -51t51 -21h624q30 0 51 21t21 51v880q0 30 -21 51t-51 21zM542 -64h-60q-15 0 -24.5 9.5t-9.5 22.5t9.5 22.5t24.5 9.5h60q15 0 24.5 -9.5t9.5 -22.5t-9.5 -22.5t-24.5 -9.5zM824 65h-624v759h624v-759z" />
    <glyph glyph-name="bells" unicode="&#xe64e;" 
d="M860 64h-28v448q0 123 -82 214t-202 104v30q0 15 -10.5 25.5t-25.5 10.5t-25.5 -10.5t-10.5 -25.5v-30q-120 -13 -202 -104t-82 -214v-448h-28q-15 0 -25.5 -10.5t-10.5 -25.5t10.5 -25.5t25.5 -10.5h276v-48q0 -30 21 -51t51 -21t51 21t21 51v48h276q15 0 25.5 10.5
t10.5 25.5t-10.5 25.5t-25.5 10.5zM760 64h-496v448q0 103 72.5 175.5t175.5 72.5t175.5 -72.5t72.5 -175.5v-448z" />
    <glyph glyph-name="disconnect" unicode="&#xe64f;" 
d="M900 772q-60 60 -144.5 60t-143.5 -60l-180 -180q-11 -10 -11 -25t11 -26t26 -11t25 11l180 180q38 38 92.5 38t93 -38.5t38.5 -93t-38 -92.5l-180 -180q-10 -11 -10 -25.5t10.5 -25t25.5 -10.5t25 10l180 180q60 59 60 143.5t-60 144.5zM377 615q15 0 25.5 10.5
t10.5 25.5v145q0 15 -10.5 25.5t-25.5 10.5t-26 -10.5t-11 -25.5v-145q1 -15 11 -26q11 -10 26 -10zM809 139q-11 11 -25 10q-16 0 -26.5 -10.5t-10.5 -25.5t11 -25l102 -103q11 -10 26 -10t25.5 10.5t10.5 25.5t-10 25zM924 285h-145q-16 0 -26 -11q-11 -11 -11 -25.5
t11 -25t26 -10.5h144q15 0 26 10.5t11 25.5t-10.5 25.5t-25.5 10.5zM648 153q-15 0 -25.5 -10.5t-10.5 -25.5v-145q0 -15 10.5 -25.5t25.5 -10.5t25.5 10.5t10.5 25.5v145q0 15 -11 25q-10 11 -25 11zM541 227l-180 -180q-38 -39 -92.5 -39t-93.5 39q-38 39 -38 93t38 93
l180 180q10 10 10 25t-10.5 25.5t-25.5 10.5t-25 -10l-180 -180q-60 -60 -60 -144q0 -85 60 -144q60 -60 144 -60q85 0 144 60l180 180q11 10 11 25t-11 25.5t-26 10.5t-25 -10zM215 629q11 -11 26 -11t25.5 10.5t10.5 25.5t-11 26l-102 102q-11 11 -26 11t-25.5 -10.5
t-10.5 -25.5t11 -26zM101 483h145q15 0 25 11q11 10 11 25t-10.5 25.5t-25.5 10.5h-145q-15 0 -25.5 -10.5t-10.5 -25.5q-1 -15 10 -25.5t26 -10.5z" />
    <glyph glyph-name="database" unicode="&#xe650;" 
d="M824 896h-624q-30 0 -51 -21t-21 -51v-880q0 -30 21 -51t51 -21h624q30 0 51 21t21 51v880q0 30 -21 51t-51 21zM824 -47h-624v244q0 -1 1 -1h622q1 0 1 1v-244zM824 267q0 1 -1 1h-622q-1 0 -1 -1v244q0 -1 1 -1h622q1 0 1 1v-244zM824 581q0 1 -1 1h-622q-1 0 -1 -1
v243h624v-243zM321 75zM285 75q0 -15 10.5 -25.5t25.5 -10.5t25.5 10.5t10.5 25.5t-10.5 25.5t-25.5 10.5t-25.5 -10.5t-10.5 -25.5zM321 389zM285 389q0 -15 10.5 -25.5t25.5 -10.5t25.5 10.5t10.5 25.5t-10.5 25.5t-25.5 10.5t-25.5 -10.5t-10.5 -25.5zM321 703zM285 703
q0 -15 10.5 -25.5t25.5 -10.5t25.5 10.5t10.5 25.5t-10.5 25.5t-25.5 10.5t-25.5 -10.5t-10.5 -25.5z" />
    <glyph glyph-name="barcode" unicode="&#xe652;" 
d="M706 128h70q1 0 1 1v638q0 1 -1 1h-70q-1 0 -1 -1v-638q0 -1 1 -1zM534 72h-70q-1 0 -1 -1v-70q0 -1 1 -1h70q1 0 1 1v70q0 1 -1 1zM640 72h-70q-1 0 -1 -1v-70q0 -1 1 -1h70q1 0 1 1v70q0 1 -1 1zM428 72h-214q-1 0 -1 -1v-70q0 -1 1 -1h214q1 0 1 1v70q0 1 -1 1z
M670 768h-34q-1 0 -1 -1v-638q0 -1 1 -1h34q1 0 1 1v638q0 1 -1 1zM213 767q0 1 -1 1h-34q-1 0 -1 -1v-638q0 -1 1 -1h34q1 0 1 1v638zM1023 768h-70q-1 0 -1 -1v-766q0 -1 1 -1h70q1 0 1 1v766q0 1 -1 1zM916 72h-240q-1 0 -1 -1v-70q0 -1 1 -1h240q1 0 1 1v70q0 1 -1 1z
M916 768h-34q-1 0 -1 -1v-638q0 -1 1 -1h34q1 0 1 1v638q0 1 -1 1zM108 128h34q1 0 1 1v638q0 1 -1 1h-34q-1 0 -1 -1v-638q0 -1 1 -1zM354 128h34q1 0 1 1v638q0 1 -1 1h-34q-1 0 -1 -1v-638q0 -1 1 -1zM424 128h70q1 0 1 1v638q0 1 -1 1h-70q-1 0 -1 -1v-638q0 -1 1 -1z
M530 128h70q1 0 1 1v638q0 1 -1 1h-70q-1 0 -1 -1v-638q0 -1 1 -1zM812 128h34q1 0 1 1v638q0 1 -1 1h-34q-1 0 -1 -1v-638q0 -1 1 -1zM71 768h-70q-1 0 -1 -1v-766q0 -1 1 -1h70q1 0 1 1v766q0 1 -1 1zM178 72h-70q-1 0 -1 -1v-70q0 -1 1 -1h70q1 0 1 1v70q0 1 -1 1z
M248 128h70q1 0 1 1v638q0 1 -1 1h-70q-1 0 -1 -1v-638q0 -1 1 -1z" />
    <glyph glyph-name="hourglass" unicode="&#xe653;" 
d="M860 8h-92v219l-192 157l192 157v219h92q15 0 25.5 10.5t10.5 25.5t-10.5 25.5t-25.5 10.5h-696q-15 0 -25.5 -10.5t-10.5 -25.5t10.5 -25.5t25.5 -10.5h92v-219l192 -157l-192 -157v-219h-92q-15 0 -25.5 -10.5t-10.5 -25.5t10.5 -25.5t25.5 -10.5h696q15 0 25.5 10.5
t10.5 25.5t-10.5 25.5t-25.5 10.5zM328 581v179h368v-179l-182 -147l-2 2l-2 -2zM696 8h-368v179l184 149l184 -149v-179z" />
    <glyph glyph-name="key" unicode="&#xe654;" 
d="M876 427q-77 78 -186.5 84t-193.5 -60l-369 369q-11 11 -26 11t-25.5 -10.5t-10.5 -25.5t11 -25l369 -370q-66 -84 -60 -193.5t84 -186.5q84 -84 203.5 -84t204 84t84 203.5t-84.5 203.5zM825 71q-63 -63 -152.5 -63t-153 63t-63.5 152.5t63.5 153t153 63.5t152.5 -63.5
t63 -153t-63 -152.5zM353 596l76 76q11 10 11 25t-10.5 25.5t-25.5 10.5t-26 -10l-76 -77zM333 768q11 11 11 25.5t-10.5 25t-25.5 10.5t-26 -10l-76 -77l51 -50z" />
    <glyph glyph-name="flag" unicode="&#xe655;" 
d="M888 640h-176v56q0 30 -21 51t-51 21h-360q-3 27 -23.5 45.5t-48.5 18.5h-72q-30 0 -51 -21t-21 -51v-752q0 -30 21 -51t51 -21h72q30 0 51 21t21 51v256h360v-56q0 -30 21 -51t51 -21h176q30 0 51 21t21 51v360q0 30 -21 51t-51 21zM208 8h-72v752h72v-752zM640 336
h-360v360h360v-360zM888 208h-176v360h176v-360z" />
    </font>
</defs>
</svg>
